Сверхновая звезда / Supernova (Тамар ван ден Доп / Tamar van den Dop) [2014, Нидерланды, Драма, DVDRip] VO (PashaUp) + Sub Eng


Статистика раздачи [Обновить пиров]
Размер:  1.37 GB   |    Зарегистрирован:  1 год 1 месяц   |    Скачан:  0 раз

Полного источника не было: Никогда

 
   
 
 
 

[Цитировать]

--Сверхновая звезда / Supernova- Страна: Нидерланды
Производитель: Coin Film, Epidemic, Revolver Films
Жанр: Драма
Год выпуска: 2014
Продолжительность: 01:44:26-Перевод: Одноголосый закадровый PashaUp
по субтитрам: creo140
Cубтитры: английские
Режиссер: Тамар ван ден Доп / Tamar van den Dop-В ролях: Гайте Янсен, Тамар ван ден Доп, Боб Шварце, Элиз ван 'т Лаар
Описание: Юная героиня драмы, пятнадцатилетняя Мэйс, живет в небольшом доме у дороги, в пустынной местности. Её бабушка дни напролёт лишь качает головой, сидя в инвалидном кресле. Её отец практически не покидает любимый диван, да и мать практически ничего не делает. Мэйс катается по округе на своём велосипеде, мечтая обо всём на свете. Лишь изредка она встречается с подругой, и тогда они говорят только о мальчиках. И вот однажды, рядом с домом Мэйс, в автокатастрофу попадает молодой симпатичный парень...-| Сэмпл | IMDB | КиноПоиск |-Качество видео: DVDRip
Формат видео: AVI
Видео: 720x304 (2.37:1), 25 fps, XviD build 50 ~1670 kbps avg, 0.30 bit/pixel
Аудио: 48 kHz, AC3 Dolby Digital, 2/0 (L,R) ch, ~192 kbps

Формат субтитров: hardsub (неотключаемые)

Номинации

Берлинский кинофестиваль, 2014 год
Хрустальный медведь - лучший художественный фильм конкурса для юношества Поколение 14+

MediaInfo

Формат : AVI
Формат/Информация : Audio Video Interleave
Размер файла : 1,37 Гбайт
Продолжительность : 1 ч. 44 м.
Общий поток : 1872 Кбит/сек
Программа кодирования : VirtualDubMod 1.5.10.2 (build 2540/release)
Библиотека кодирования : VirtualDubMod build 2540/release
Видео
Идентификатор : 0
Формат : MPEG-4 Visual
Профиль формата : Advanced Simple@L5
Параметр BVOP формата : 1
Параметр QPel формата : Нет
Параметр GMC формата : Без точки перехода
Параметр матрицы формата : Default (MPEG)
Идентификатор кодека : XVID
Идентификатор кодека/Подсказка : XviD
Продолжительность : 1 ч. 44 м.
Битрейт : 1671 Кбит/сек
Ширина : 720 пикселей
Высота : 304 пикселя
Соотношение сторон : 2,35:1
Частота кадров : 25,000 кадров/сек
Цветовое пространство : YUV
Субдискретизация насыщенности : 4:2:0
Битовая глубина : 8 бит
Тип развёртки : Прогрессивная
Метод сжатия : С потерями
Бит/(Пиксели*Кадры) : 0.305
Размер потока : 1,22 Гбайт (89%)
Библиотека кодирования : XviD 1.2.1 (UTC 2008-12-04)
Аудио
Идентификатор : 1
Формат : AC-3
Формат/Информация : Audio Coding 3
Расширение режима : CM (complete main)
Параметр Endianness формата : Big
Идентификатор кодека : 2000
Продолжительность : 1 ч. 44 м.
Вид битрейта : Постоянный
Битрейт : 192 Кбит/сек
Каналы : 2 канала
Расположение каналов : Front: L R
Частота : 48,0 КГц
Битовая глубина : 16 бит
Метод сжатия : С потерями
Размер потока : 143 Мбайт (10%)
Выравнивание : Разделение по промежуткам
Продолжительность промежутка : 40 мс. (1,00 видеокадр)
Время предзагрузки промежутка : 500 мс.

Скриншот c названием фильма

Скриншоты

[teatrix.ru].t5982.torrent 
Торрент: Зарегистрирован [ 2015-10-10 09:49 ] · F3B8997B33472C8B56AD96C7E0105DF41880A24A

Скачать .torrent

Скачать

14 KB

Статус: проверено
Скачан: 0 раз
Размер: 1.37 GB
terms.php



Быстрый ответ

Имя:

      
Для отправки сообщений необходимо включить JavaScript
Показать сообщения:    

Текущее время: 08-Дек 14:58

Часовой пояс: UTC + 3


Вы можете начинать темы
Вы можете отвечать на сообщения
Вы не можете редактировать свои сообщения
Вы не можете удалять свои сообщения
Вы не можете голосовать в опросах
Вы не можете прикреплять файлы к сообщениям
Вы можете скачивать файлы