Смиренное кладбище (Александр Итыгилов) [1989, СССР, драма, экранизация, SATRip] Sub (Ukr)


Статистика раздачи [Обновить пиров]
Размер:  1.46 GB   |    Зарегистрирован:  1 год 1 месяц   |    Скачан:  0 раз

Полного источника не было: Никогда

 
   
 
 
 

[Цитировать]

Смиренное кладбище
Страна: СССР
Жанр: Драма,экранизация
Год выпуска: 1989
Продолжительность: 1:37:16
Перевод: Не требуется
Субтитры: украинские (неотключаемые)
Оригинальная аудиодорожка: русский
Режиссёр: Александр Итыгилов
В ролях: Владимир Гостюхин, Лев Дуров, Виктор Авилов, Алексей Серебряков, Лев Борисов, Нина Русланова, Ольга Матешко, Виталий Шаповалов, Всеволод Шиловский, Борис Галкин, Николай Пастухов, Мария Виноградова, Алексей Зайцев, Олег Севастьянов, Валерий Прохоров, Виктор Поморцев, Александр Январёв, Александр Милютин, Аркадий Высоцкий, Иван Герасевич, С. Соловьев, Владимир Шахов, Владимир Карасев (III), Андрюша Макиенко
Описание: Директором одного из кладбищ была продана под новое захоронение старая могила. Место это находилось рядом с могилой декабриста и было определено под мемориал. Выкопать новую могилу директор поручает Алексею Воробьеву по прозвищу Воробей. Когда началось выяснение инцидента, всю вину свалили на Воробья. В отчаянии, Алексей решает покончить с собой...
Доп. информация: Производство: Киностудия им. А.Довженко
Семпл: https://www.sendspace.com/file/5fpzmk
Качество видео: SATRip
Формат видео: AVI
Видео: XviD MPEG-4 , 720x480 (1.50:1), 25 fps ,1940 Kbps
Аудио: AC3 , 48 kHz , 192.00 kbps avg , 2/0 (L,R) ch

MediaInfo

Complete name Смиренное кладбище 1989.avi
Format : AVI
Format/Info : Audio Video Interleave
File size : 1.46 GiB
Duration : 1h 37mn
Overall bit rate : 2 142 Kbps
Writing library : VirtualDub build 35491/release
Video
ID : 0
Format : MPEG-4 Visual
Format profile : Advanced Simple@L5
Format settings, BVOP : 2
Format settings, QPel : No
Format settings, GMC : No warppoints
Format settings, Matrix : Default (H.263)
Codec ID : XVID
Codec ID/Hint : XviD
Duration : 1h 37mn
Bit rate : 1 940 Kbps
Width : 720 pixels
Height : 480 pixels
Display aspect ratio : 3:2
Frame rate : 25.000 fps
Standard : NTSC
Color space : YUV
Chroma subsampling : 4:2:0
Bit depth : 8 bits
Scan type : Progressive
Compression mode : Lossy
Bits/(Pixel*Frame) : 0.225
Stream size : 1.32 GiB (91%)
Writing library : XviD 1.2.1 (UTC 2008-12-04)
Audio
ID : 1
Format : AC-3
Format/Info : Audio Coding 3
Mode extension : CM (complete main)
Format settings, Endianness : Big
Codec ID : 2000
Duration : 1h 37mn
Bit rate mode : Constant
Bit rate : 192 Kbps
Channel(s) : 2 channels
Channel positions : Front: L R
Sampling rate : 48.0 KHz
Bit depth : 16 bits
Compression mode : Lossy
Stream size : 134 MiB (9%)
Alignment : Aligned on interleaves
Interleave, duration : 40 ms (1.00 video frame)
Interleave, preload duratio : 512 ms

Скриншоты

[teatrix.ru].t5984.torrent 
Торрент: Зарегистрирован [ 2015-10-10 09:49 ] · 5863C0C9D8BDE613FC20D38A6DB5EA8359A71C0D

Скачать .torrent

Скачать

15 KB

Статус: проверено
Скачан: 0 раз
Размер: 1.46 GB
terms.php



Быстрый ответ

Имя:

      
Для отправки сообщений необходимо включить JavaScript
Показать сообщения:    

Текущее время: 02-Дек 21:07

Часовой пояс: UTC + 3


Вы можете начинать темы
Вы можете отвечать на сообщения
Вы не можете редактировать свои сообщения
Вы не можете удалять свои сообщения
Вы не можете голосовать в опросах
Вы не можете прикреплять файлы к сообщениям
Вы можете скачивать файлы