Лутон / Luton (Михалис Константатос / Michalis Konstantatos) [2013, Греция, Германия, Артхаус, драма, DVDRip-AVC] Sub Rus, Eng + Original


Статистика раздачи [Обновить пиров]
Размер:  1.35 GB   |    Зарегистрирован:  1 год 1 месяц   |    Скачан:  1 раз

Полного источника не было: 4 месяца 22 дня

 
   
 
 
 

[Цитировать]

Лутон / Luton
Страна: Греция
Жанр: Артхаус, драма
Год выпуска: 2013
Продолжительность: 01:36:24
Перевод: Субтитры: creo140
Cубтитры: русские, английские
Оригинальная аудиодорожка: греческий
Режиссер: Михалис Конcтантатос / Michalis Konstantatos
В ролях: Николас Влачакис, Элефтерия Коми, Христос Сапутзис, Йота Аргиропулу, Стив Крикрис
Описание: Главные герои Макис, Мэри и Джимми (Димитрис Филлипо). Каждый живёт своей жизнью и на первый взгляд даже не знают друг друга. И как правило, они даже не должны узнавать друг о друге...
Доп. информация: http://www.kinopoisk.ru/film/787838/
http://www.imdb.com/title/tt3112966
Сэмпл: http://multi-up.com/1033530
Качество видео: DVDRip-AVC
Формат видео: MKV
Видео: MPEG4 Video (H264) 720@1024x576 (16:9) 25fps [V: h264 high L4.1, yuv420p, 720x576 [default]]
Аудио: Dolby AC3 48000Hz stereo 192kbps [A: Greek [gre] (ac3, 48000 Hz, stereo, 192 kb/s)
Формат субтитров: softsub (SRT)

Фрагмент субтитров

1
00:06:05,527 --> 00:06:07,483
Пачку Мальборо.
- Лёгкие?
2
00:06:07,527 --> 00:06:08,880
Да.
3
00:06:13,287 --> 00:06:14,800
3,50...
4
00:06:15,727 --> 00:06:17,638
(на ломаном греческом языке)
Извините, но у меня...
5
00:06:18,927 --> 00:06:20,679
Никаких проблем.
6
00:07:08,607 --> 00:07:10,518
Вот.
7
00:07:11,487 --> 00:07:13,284
Спасибо.
8
00:07:21,567 --> 00:07:24,639
К чёрту вас всех и ваши пятидесятки.
9
00:08:04,447 --> 00:08:06,802
Это ты Лица?
10
00:08:07,767 --> 00:08:10,716
Приготовь фаршированные помидоры, да...
11
00:08:10,767 --> 00:08:12,716
в этот раз не клади изюм.
12
00:08:15,887 --> 00:08:20,039
Всё хорошо, да.
13
00:08:21,407 --> 00:08:23,398
Да, да.
14
00:09:13,287 --> 00:09:16,085
Макис, правильно?
- Да.
15
00:09:16,367 --> 00:09:18,961
Йоргос прислал меня одного с круассанами.
16
00:09:19,487 --> 00:09:22,160
Он не очень хорошо себя чувствует,
поэтому прислал меня.
17
00:09:38,647 --> 00:09:40,956
Только шоколад?
А с клубникой нет?
18
00:09:43,767 --> 00:09:46,076
Я принёс то,
что мне сказали.
19
00:09:46,367 --> 00:09:48,961
Если у вас какие-то проблемы,
то я отнесу их обратно.
20
00:09:52,687 --> 00:09:54,166
Ладно, оставь их.
21
00:10:05,527 --> 00:10:07,279
Пока.

MediaInfo

Format : Matroska
Format version : Version 4 / Version 2
File size : 1.35 GiB
Duration : 1h 36mn
Overall bit rate : 2 001 Kbps
Movie name : Luton (Michalis Konstantatos, 2013)
Encoded date : UTC 2014-11-15 10:57:41
Writing application : mkvmerge v7.3.0 ('Nouages') 32bit built on Oct 22 2014 18:44:01
Writing library : libebml v1.3.0 + libmatroska v1.4.1
DURATION : 01:36:24.288000000
NUMBER_OF_FRAMES : 180759
NUMBER_OF_BYTES : 138822912
_STATISTICS_WRITING_APP : mkvmerge v7.3.0 ('Nouages') 32bit built on Oct 22 2014 18:44:01
_STATISTICS_WRITING_DATE_UTC : 2014-11-15 10:57:41
_STATISTICS_TAGS : BPS DURATION NUMBER_OF_FRAMES NUMBER_OF_BYTES
Video
ID : 1
Format : AVC
Format/Info : Advanced Video Codec
Format profile : High@L4.1
Format settings, CABAC : Yes
Format settings, ReFrames : 9 frames
Codec ID : V_MPEG4/ISO/AVC
Duration : 1h 36mn
Bit rate : 1 810 Kbps
Width : 720 pixels
Height : 576 pixels
Display aspect ratio : 16:9
Frame rate mode : Constant
Frame rate : 25.000 fps
Standard : PAL
Color space : YUV
Chroma subsampling : 4:2:0
Bit depth : 8 bits
Scan type : Progressive
Bits/(Pixel*Frame) : 0.175
Stream size : 1.19 GiB (88%)
Writing library : x264 core 142 r2431 ac76440
Encoding settings : cabac=1 / ref=9 / deblock=1:-3:-3 / analyse=0x3:0x133 / me=umh / subme=9 / psy=1 / psy_rd=1.00:0.15 / mixed_ref=1 / me_range=24 / chroma_me=1 / trellis=1 / 8x8dct=1 / cqm=0 / deadzone=21,11 / fast_pskip=0 / chroma_qp_offset=-3 / threads=3 / lookahead_threads=1 / sliced_threads=0 / nr=0 / decimate=1 / interlaced=0 / bluray_compat=0 / constrained_intra=0 / bframes=5 / b_pyramid=2 / b_adapt=2 / b_bias=0 / direct=1 / weightb=1 / open_gop=0 / weightp=2 / keyint=250 / keyint_min=25 / scenecut=40 / intra_refresh=0 / rc_lookahead=50 / rc=2pass / mbtree=1 / bitrate=1810 / ratetol=1.0 / qcomp=0.60 / qpmin=0 / qpmax=69 / qpstep=4 / cplxblur=20.0 / qblur=0.5 / vbv_maxrate=62500 / vbv_bufsize=78125 / nal_hrd=none / filler=0 / ip_ratio=1.40 / aq=1:1.00
Default : Yes
Forced : No
Audio
ID : 2
Format : AC-3
Format/Info : Audio Coding 3
Mode extension : CM (complete main)
Format settings, Endianness : Big
Codec ID : A_AC3
Duration : 1h 36mn
Bit rate mode : Constant
Bit rate : 192 Kbps
Channel(s) : 2 channels
Channel positions : Front: L R
Sampling rate : 48.0 KHz
Bit depth : 16 bits
Compression mode : Lossy
Stream size : 132 MiB (10%)
Language : Greek
Default : Yes
Forced : No
Menu
00:00:00.000 : en:Chapter 1
00:04:57.600 : en:Chapter 2
00:10:26.400 : en:Chapter 3
00:21:04.800 : en:Chapter 4
00:34:41.280 : en:Chapter 5
00:40:25.440 : en:Chapter 6
00:54:27.840 : en:Chapter 7
01:00:56.160 : en:Chapter 8
01:09:04.800 : en:Chapter 9
01:16:22.560 : en:Chapter 10
01:24:26.400 : en:Chapter 11
01:31:48.000 : en:Chapter 12

Скриншот c названием фильма

[teatrix.ru].t5985.torrent 
Торрент: Зарегистрирован [ 2015-10-10 09:49 ] · 94F40A22D39AA6427D7F0C396D37FF6F12CEE65E

Скачать .torrent

Скачать

14 KB

Статус: проверено
Скачан: 1 раз
Размер: 1.35 GB
terms.php



Быстрый ответ

Имя:

      
Для отправки сообщений необходимо включить JavaScript
Показать сообщения:    

Текущее время: 10-Дек 06:10

Часовой пояс: UTC + 3


Вы можете начинать темы
Вы можете отвечать на сообщения
Вы не можете редактировать свои сообщения
Вы не можете удалять свои сообщения
Вы не можете голосовать в опросах
Вы не можете прикреплять файлы к сообщениям
Вы можете скачивать файлы