Сверхновая звезда / Supernova (Тамар ван ден Доп / Tamar van den Dop) [2014, Нидерланды, Драма, DVDRip] + Sub Rus + Original Dut


Статистика раздачи [Обновить пиров]
Размер:  1.37 GB   |    Зарегистрирован:  1 год 1 месяц   |    Скачан:  0 раз

Полного источника не было: Никогда

 
   
 
 
 

[Цитировать]

Сверхновая звезда / Supernova
Страна: Нидерланды
Жанр: Драма
Год выпуска: 2014
Продолжительность: 01:42:47
Перевод: Субтитры creo140
Cубтитры: русские внешние, английские hardsub
Оригинальная аудиодорожка: нидерландский
Режиссер: Тамар ван ден Доп / Tamar van den Dop
В ролях: Гайте Янсен, Тамар ван ден Доп, Боб Шварце, Элиз ван 'т Лаар
Описание: Юная героиня драмы, пятнадцатилетняя Мэйс, живет в небольшом доме у дороги, в пустынной местности. Её бабушка дни напролёт лишь качает головой, сидя в инвалидном кресле. Её отец практически не покидает любимый диван, да и мать практически ничего не делает. Мэйс катается по округе на своём велосипеде, мечтая обо всём на свете. Лишь изредка она встречается с подругой, и тогда они говорят только о мальчиках. И вот однажды, рядом с домом Мэйс, в автокатастрофу попадает молодой симпатичный парень...
Доп. информация: http://www.kinopoisk.ru/film/619982/
http://www.imdb.com/title/tt1730764/
Сэмпл: http://multi-up.com/1033089
Качество видео: DVDRip
Формат видео: AVI
Видео: Xvid 720x304 25fps 1670kbps [V: mpeg4 advanced simple profile, yuv420p, 720x304, 1670 kb/s]
Аудио: Dolby AC3 48000Hz stereo 192kbps [A: ac3, 48000 Hz, stereo, 192 kb/s]
Формат субтитров: softsub (SRT)

Дополнительный постер

Номинации

Берлинский кинофестиваль, 2014 год
Хрустальный медведь - лучший художественный фильм конкурса для юношества Поколение 14+

Фрагмент субтитров

6
00:01:13,040 --> 00:01:14,239
Или птичка.
7
00:01:38,160 --> 00:01:40,439
Здесь ничего нет.
8
00:01:44,440 --> 00:01:48,279
Мама говорит, что когда ты умираешь,
там тоже ничего нет
9
00:01:50,160 --> 00:01:52,199
Значит мой дедушка тоже ничто.
10
00:01:57,920 --> 00:02:00,839
Даже вакуум по сравнению с этим
ничего не значит.
11
00:02:01,000 --> 00:02:03,239
Абсолютная пустота.
12
00:02:05,960 --> 00:02:09,679
Звезда внутри вакуума в пространстве
13
00:02:12,600 --> 00:02:16,719
Самый совершенный вакуум,
когда-либо созданный человеком
14
00:02:16,880 --> 00:02:20,559
не превосходит по пустоте
вакуум межзвёздного пространства
15
00:02:24,480 --> 00:02:27,319
Придется пройти
многое из ничего,
16
00:02:27,340 --> 00:02:30,319
прежде чем вы достигните
следующую цепь чего-то.

MediaInfo

Format : AVI
Format/Info : Audio Video Interleave
File size : 1.37 GiB
Duration : 1h 44mn
Overall bit rate : 1 872 Kbps
Writing application : VirtualDubMod 1.5.10.3 | www.virtualdub-fr.org || (build 2550/release)
Writing library : VirtualDubMod build 2550/release
Video
ID : 0
Format : MPEG-4 Visual
Format profile : Advanced Simple@L5
Format settings, BVOP : Yes
Format settings, QPel : No
Format settings, GMC : No warppoints
Format settings, Matrix : Default (MPEG)
Codec ID : XVID
Codec ID/Hint : XviD
Duration : 1h 44mn
Bit rate : 1 671 Kbps
Width : 720 pixels
Height : 304 pixels
Display aspect ratio : 2.35:1
Frame rate : 25.000 fps
Color space : YUV
Chroma subsampling : 4:2:0
Bit depth : 8 bits
Scan type : Progressive
Compression mode : Lossy
Bits/(Pixel*Frame) : 0.305
Stream size : 1.22 GiB (89%)
Writing library : XviD 1.2.1 (UTC 2008-12-04)
Audio
ID : 1
Format : AC-3
Format/Info : Audio Coding 3
Mode extension : CM (complete main)
Format settings, Endianness : Big
Codec ID : 2000
Duration : 1h 44mn
Bit rate mode : Constant
Bit rate : 192 Kbps
Channel(s) : 2 channels
Channel positions : Front: L R
Sampling rate : 48.0 KHz
Bit depth : 16 bits
Compression mode : Lossy
Stream size : 143 MiB (10%)
Alignment : Split accross interleaves
Interleave, duration : 40 ms (1.00 video frame)
Interleave, preload duration : 500 ms

Скриншот c названием фильма

[teatrix.ru].t5987.torrent 
Торрент: Зарегистрирован [ 2015-10-10 09:49 ] · F2802BFC35ACD5A1A09486812B8DFE2584D91F84

Скачать .torrent

Скачать

14 KB

Статус: проверено
Скачан: 0 раз
Размер: 1.37 GB
terms.php



Быстрый ответ

Имя:

      
Для отправки сообщений необходимо включить JavaScript
Показать сообщения:    

Текущее время: 09-Дек 20:32

Часовой пояс: UTC + 3


Вы можете начинать темы
Вы можете отвечать на сообщения
Вы не можете редактировать свои сообщения
Вы не можете удалять свои сообщения
Вы не можете голосовать в опросах
Вы не можете прикреплять файлы к сообщениям
Вы можете скачивать файлы