До встречи в аду, дорогая моя / Tha se do stin Kolasi, agapi mou / See You In Hell, My Darling (Никос Николаидис / Nikos Nikolaidis) [1999, Греция, Триллер, DVDRip] VO


Статистика раздачи [Обновить пиров]
Размер:  1.32 GB   |    Зарегистрирован:  1 год 1 месяц   |    Скачан:  0 раз

Полного источника не было: 4 месяца 26 дней

 
   
 
 
 

[Цитировать]

До встречи в аду, дорогая моя / Tha se do stin Kolasi, agapi mou / See You In Hell, My Dar
Страна: Греция
Жанр: Триллер
Год выпуска: 1999
Продолжительность: 01:48:14
Перевод: Одноголосый любительский: Миллиган по субтитрам creo140
Cубтитры: нет
Режиссер: Никос Николаидис / Nikos Nikolaidis
В ролях: Вики Харрис, Валерия Христодоулидо, Пачалис Цараухас, Никос Кординос
Описание: Что для других ад, для них является домом. Эта история о Вере, Эльзе и о мужчине. История о большой любви, которая связывает их друг с другом.
Эльза - Мы живём на зыбучих песках. И даже если эта история кошмарна, но она по-прежнему наша. Я сейчас объясню... Ты понимаешь меня? Для меня не имело большого труда убить тебя. Когда ты кого-нибудь любишь, это проще сделать. Таковы правила нашей игры.
Вера - Я могла убежать и спасти себя, но... Когда земля уходит из-под ног... Кто-то должен быть рядом, кто поддержит тебя или столкнёт в пропасть... Кто-то, кто очень любит тебя.. Только тогда всё имеет хоть какой-то смысл.
Мужчина - отчаянно нуждается в сигаретах.
Доп. информация:
http://www.imdb.com/title/tt0244199/
http://www.kinopoisk.ru/level/1/film/147919/
Сэмпл: http://multi-up.com/1033081
Качество видео: DVDRip
Формат видео: AVI
Видео: Xvid 624x384 25fps 1610kbps [V: mpeg4 advanced simple profile, yuv420p, 624x384, 1610 kb/s]
Аудио: MP3 48000Hz stereo 128kbps [A: mp3, 48000 Hz, stereo, 128 kb/s]

MediaInfo

Format : AVI
Format/Info : Audio Video Interleave
File size : 1.32 GiB
Duration : 1h 48mn
Overall bit rate : 1 748 Kbps
Writing application : VirtualDubMod 1.5.4.1 (build 2178/release)
Writing library : VirtualDub build 35491/release
Video
ID : 0
Format : MPEG-4 Visual
Format profile : Advanced Simple@L5
Format settings, BVOP : Yes
Format settings, QPel : No
Format settings, GMC : No warppoints
Format settings, Matrix : Custom
Codec ID : XVID
Codec ID/Hint : XviD
Duration : 1h 48mn
Bit rate : 1 610 Kbps
Width : 624 pixels
Height : 384 pixels
Display aspect ratio : 16:10
Frame rate : 25.000 fps
Color space : YUV
Chroma subsampling : 4:2:0
Bit depth : 8 bits
Scan type : Progressive
Compression mode : Lossy
Bits/(Pixel*Frame) : 0.269
Stream size : 1.22 GiB (92%)
Writing library : XviD 1.2.0.dev47 (UTC 2006-11-01)
Audio
ID : 1
Format : MPEG Audio
Format version : Version 1
Format profile : Layer 3
Mode : Joint stereo
Mode extension : MS Stereo
Codec ID : 55
Codec ID/Hint : MP3
Duration : 1h 48mn
Bit rate mode : Constant
Bit rate : 128 Kbps
Channel(s) : 2 channels
Sampling rate : 48.0 KHz
Compression mode : Lossy
Stream size : 99.1 MiB (7%)
Alignment : Split accross interleaves
Interleave, duration : 40 ms (1.00 video frame)
Interleave, preload duration : 500 ms

Скриншот c названием фильма

Скриншоты





[teatrix.ru].t5988.torrent 
Торрент: Зарегистрирован [ 2015-10-10 09:49 ] · 95D040C40C85F013166BBA8512B006D2AC6ACD49

Скачать .torrent

Скачать

14 KB

Статус: проверено
Скачан: 0 раз
Размер: 1.32 GB
terms.php



Быстрый ответ

Имя:

      
Для отправки сообщений необходимо включить JavaScript
Показать сообщения:    

Текущее время: 05-Дек 21:40

Часовой пояс: UTC + 3


Вы можете начинать темы
Вы можете отвечать на сообщения
Вы не можете редактировать свои сообщения
Вы не можете удалять свои сообщения
Вы не можете голосовать в опросах
Вы не можете прикреплять файлы к сообщениям
Вы можете скачивать файлы