Форс-Мажор / Force-Majeure / Turist (Рубен Эстлунд / Ruben Östlund) [2014, Швеция, Франция, Норвегия, Драма, комедия, HDRip] VO (PashaUp)


 

[Цитировать]

Форс-Мажор / Force-Majeure / Turist
Страна: Швеция, Франция, Норвегия
Жанр: Драма, комедия
Год выпуска: 2014
Продолжительность: 01:59:41
Перевод: Одноголосый закадровый PashaUp
Cубтитры: нет
Режиссер: Рубен Эстлунд / Ruben Östlund
В ролях: Клара Веттерген, Винсент Веттерген, Брэйди Корбет, Кристофер Хивью, Малин Даль
Описание: Зимний отпуск – это то время, когда правильный отец забывает о работе и посвящает себя любимой жене и любимым детям, выбрав идеальное место для идеального отдыха в идеальной стране. Утром все вместе завтракают, днем – вместе катаются на лыжах, перед сном – вместе чистят зубы. И до чего обидно, когда всего какая-то мелочь в виде непрошенной снежной лавины разрушает эту идиллическую картину: отец оказывается трусом, жена – истеричкой, да и все остальные пары вокруг начинают вызывать большие сомнения…
Сэмпл: http://multi-up.com/1033011
Качество видео: HDRip
Формат видео: AVI
Видео: 688x288 (2.39:1), 23.976 fps, XviD build 73 ~735 kbps avg, 0.16 bit/pixel
Аудио: 48 kHz, MPEG Layer 3, 2 ch, ~128.00 kbps avg

MediaInfo

Формат : AVI
Формат/Информация : Audio Video Interleave
Размер файла : 747 Мбайт
Продолжительность : 1 ч. 59 м.
Общий поток : 873 Кбит/сек
Программа кодирования : VirtualDubMod 1.5.10.3 | www.virtualdub-fr.org || (build 2550/release)
Библиотека кодирования : VirtualDubMod build 2550/release
Видео
Идентификатор : 0
Формат : MPEG-4 Visual
Профиль формата : Advanced Simple@L5
Параметр BVOP формата : 1
Параметр QPel формата : Нет
Параметр GMC формата : Без точки перехода
Параметр матрицы формата : Выборочная
Идентификатор кодека : XVID
Идентификатор кодека/Подсказка : XviD
Продолжительность : 1 ч. 59 м.
Битрейт : 736 Кбит/сек
Ширина : 688 пикселей
Высота : 288 пикселей
Соотношение сторон : 2,40:1
Частота кадров : 23,976 кадра/сек
Цветовое пространство : YUV
Субдискретизация насыщенности : 4:2:0
Битовая глубина : 8 бит
Тип развёртки : Прогрессивная
Метод сжатия : С потерями
Бит/(Пиксели*Кадры) : 0.155
Размер потока : 630 Мбайт (84%)
Библиотека кодирования : XviD 73
Аудио
Идентификатор : 1
Формат : MPEG Audio
Версия формата : Version 1
Профиль формата : Layer 3
Идентификатор кодека : 55
Идентификатор кодека/Подсказка : MP3
Продолжительность : 1 ч. 59 м.
Вид битрейта : Постоянный
Битрейт : 128 Кбит/сек
Каналы : 2 канала
Частота : 48,0 КГц
Метод сжатия : С потерями
Размер потока : 110 Мбайт (15%)
Выравнивание : Соединение по промежуткам
Продолжительность промежутка : 42 мс. (1,00 видеокадр)
Время предзагрузки промежутка : 504 мс.
Библиотека кодирования : LAME3.99r
Настройки программы : -m s -V 4 -q 2 -lowpass 17 -b 128

Скриншоты




Показать сообщения:    

Текущее время: 05-Дек 11:31

Часовой пояс: UTC + 3


Вы не можете начинать темы
Вы не можете отвечать на сообщения
Вы не можете редактировать свои сообщения
Вы не можете удалять свои сообщения
Вы не можете голосовать в опросах
Вы не можете прикреплять файлы к сообщениям
Вы не можете скачивать файлы