Навострите ваши уши / Prick Up Your Ears (Стивен Фрирз / Stephen Frears) [1987, Великобритания, биография, драма, DVDRip] AVO (Карповский) Гей тема


Статистика раздачи [Обновить пиров]
Размер:  1.38 GB   |    Зарегистрирован:  1 год 1 месяц   |    Скачан:  0 раз

Полного источника не было: Никогда

 
   
 
 
 

[Цитировать]

Навострите ваши ушиPrick Up Your Ears Страна: Великобритания
Жанр: биография, драма
Год выпуска: 1987
Продолжительность: 01:50:14-Перевод: Авторский (одноголосый закадровый) Антон Карповский
Cубтитры: нет-Режиссер: Стивен Фрирз / Stephen Frears
В ролях: Гэри Олдмэн, Ванесса Рэдгрейв, Альфред Молина , Джулия Уолтерс, Фрэнсис Барбер, Линдсэй Дункан-Описание: О жизни и трагической кончине Джо Ортона, драматурга-гомосексуалиста, чья короткая, но блестящая карьера подарила миру гениальные фарсы «Богатый, интересный мистер Слоан» («Loot, Entertaining Mr. Sloan«) и »Что видел дворецкий« (»What the Butler Saw»).
Он родился в Лейчестере, Англия, и умер в возрасте 34 лет в 1967 году, когда его любовник Кеннет Холлиуэлл проломил ему череп молотком, а потом проглотил две пригоршни нембутала, чтобы покончить собой. Картина начинается с этого мрачного события, затем биография драматурга подается в форме ретроспекции, биограф Джон Лар исследует короткую жизнь Ортона.-Сэмпл-Качество видео: DVDRip
Формат видео: AVI
Видео: 608x320 (1.90:1), 29.970 fps, DivX Codec 5.2.1 build 1328 ~1588 kbps avg, 0.27 bit/pixel
Аудио: 48 kHz, AC3 Dolby Digital, 2/0 (L,R) ch, ~192 kbps

MediaInfo

Общее
Полное имя : E:\Torrent\Prick.Up.Your.Ears.1987.avi
Формат : AVI
Формат/Информация : Audio Video Interleave
Размер файла : 1,38 Гбайт
Продолжительность : 1 ч. 50 м.
Общий поток : 1792 Кбит/сек
Программа кодирования : VirtualDubMod 1.5.10.2 (build 2540/release)
Библиотека кодирования : VirtualDubMod build 2540/release
Видео
Идентификатор : 0
Формат : MPEG-4 Visual
Параметр BVOP формата : 1
Параметр QPel формата : Нет
Параметр GMC формата : Без точки перехода
Параметр матрицы формата : Default (H.263)
Режим смешивания : Сжатый битовый поток
Идентификатор кодека : DX50
Идентификатор кодека/Подсказка : DivX 5
Продолжительность : 1 ч. 50 м.
Битрейт : 1588 Кбит/сек
Ширина : 608 пикселей
Высота : 320 пикселей
Соотношение сторон : 1,900
Частота кадров : 29,970 кадров/сек
Цветовое пространство : YUV
Субдискретизация насыщенности : 4:2:0
Битовая глубина : 8 бит
Тип развёртки : Прогрессивная
Метод сжатия : С потерями
Бит/(Пиксели*Кадры) : 0.272
Размер потока : 1,22 Гбайт (89%)
Библиотека кодирования : DivX 5.2.1 (WaffleDay) (UTC 2004-09-08)
Аудио
Идентификатор : 1
Формат : AC-3
Формат/Информация : Audio Coding 3
Расширение режима : CM (complete main)
Параметр Endianness формата : Big
Идентификатор кодека : 2000
Продолжительность : 1 ч. 50 м.
Вид битрейта : Постоянный
Битрейт : 192 Кбит/сек
Каналы : 2 канала
Расположение каналов : Front: L R
Частота : 48,0 КГц
Битовая глубина : 16 бит
Метод сжатия : С потерями
Размер потока : 151 Мбайт (11%)
Выравнивание : Разделение по промежуткам
Продолжительность промежутка : 33 мс. (1,00 видеокадр)
Время предзагрузки промежутка : 500 мс.

Скриншот c названием фильма

Скриншоты

[teatrix.ru].t5992.torrent 
Торрент: Зарегистрирован [ 2015-10-10 09:49 ] · 71DD48FAB4F92E1D85407843AFA08AAE536BB254

Скачать .torrent

Скачать

14 KB

Статус: проверено
Скачан: 0 раз
Размер: 1.38 GB
terms.php



Быстрый ответ

Имя:

      
Для отправки сообщений необходимо включить JavaScript
Показать сообщения:    

Текущее время: 05-Дек 19:35

Часовой пояс: UTC + 3


Вы можете начинать темы
Вы можете отвечать на сообщения
Вы не можете редактировать свои сообщения
Вы не можете удалять свои сообщения
Вы не можете голосовать в опросах
Вы не можете прикреплять файлы к сообщениям
Вы можете скачивать файлы