История золотой гейши / Tales Of A Golden Geisha / A-ge-man / Ageman (Дзюдзо Итами / Juzo Itami) [1990, Япония, драма, комедия, DVDRip] Sub Rus, Eng + Original Jap


Статистика раздачи [Обновить пиров]
Размер:  1.41 GB   |    Зарегистрирован:  1 год 1 месяц   |    Скачан:  0 раз

Полного источника не было: Никогда

 
   
 
 
 

[Цитировать]

История золотой гейши / Tales Of A Golden Geisha / A-ge-man
Страна: Япония
Студия: Itami Productions
Жанр: драма, комедия
Год выпуска: 1990
Продолжительность: 01:58:18
Перевод: Субтитры / Severnyj
Cубтитры: русские, английские
Режиссер: Дзюдзо Итами / Juzo Itami
В ролях: Нобухико Миямото, Масахико Цугава, Хироши Окочи, Рюноскэ Канэда, Ацуко Итиномия, Кин Сугаи, Казуэ Мита, Мицуко Исий, Ерико Доугучи, Маико Минами
Описание: Девушке Найоко с момента вступления во взрослую жизнь было предначертано судьбой стать живым талисманом - те, кто с ней жил, имел удачную судьбу. Священник, ее первый мужчина, за три года сумел высоко подняться в иерархии, затем бизнесмен, потом политик. Всем своим мужчинам она приносила удачу. Тех же, кто ссорился с ней, ждали неприятности.
II Сэмпл II IMDB II
Релиз группа:

Доп. информация:
За исходник спасибо colt451
Качество видео: DVDRip
Формат видео: AVI
Видео: Xvid 688x512 (4:3) 23.976fps Bit rate 1469Kbps b/p 0.174
Аудио: AC3 48.0 KHz 2ch. 224kbps jap
Формат субтитров: softsub (SRT)

MediaInfo

Общее
Полное имя : E:\torrent\Tales.Of.A.Golden.Geisha.1990.DVDRip\Tales.Of.A.Golden.Geisha.1990.DVDRip.avi
Формат : AVI
Формат/Информация : Audio Video Interleave
Размер файла : 1,41 Гбайт
Продолжительность : 1 ч. 58 м.
Общий поток : 1702 Кбит/сек
Программа кодирования : VirtualDubMod 1.5.10.3 (build 2550/release)
Библиотека кодирования : VirtualDub build 32842/release
Видео
Идентификатор : 0
Формат : MPEG-4 Visual
Профиль формата : Advanced Simple@L5
Параметр BVOP формата : 2
Параметр QPel формата : Нет
Параметр GMC формата : Без точки перехода
Параметр матрицы формата : Default (MPEG)
Идентификатор кодека : XVID
Идентификатор кодека/Подсказка : XviD
Продолжительность : 1 ч. 58 м.
Битрейт : 1469 Кбит/сек
Ширина : 688 пикселей
Высота : 512 пикселей
Соотношение сторон : 4:3
Частота кадров : 23,976 кадра/сек
Цветовое пространство : YUV
Субдискретизация насыщенности : 4:2:0
Битовая глубина : 8 бит
Тип развёртки : Прогрессивная
Метод сжатия : С потерями
Бит/(Пиксели*Кадры) : 0.174
Размер потока : 1,21 Гбайт (86%)
Библиотека кодирования : XviD 1.2.1 (UTC 2008-12-04)
Аудио
Идентификатор : 1
Формат : AC-3
Формат/Информация : Audio Coding 3
Расширение режима : CM (complete main)
Параметр Endianness формата : Big
Идентификатор кодека : 2000
Продолжительность : 1 ч. 58 м.
Вид битрейта : Постоянный
Битрейт : 224 Кбит/сек
Каналы : 2 канала
Расположение каналов : Front: L R
Частота : 48,0 КГц
Битовая глубина : 16 бит
Метод сжатия : С потерями
Размер потока : 190 Мбайт (13%)
Выравнивание : Разделение по промежуткам
Продолжительность промежутка : 42 мс. (1,00 видеокадр)
Время предзагрузки промежутка : 500 мс.

Скриншот c названием фильма

Скриншоты


[teatrix.ru].t5993.torrent 
Торрент: Зарегистрирован [ 2015-10-10 09:49 ] · 97D687FE0B204EAD90374DA0DA0361A47B75D734

Скачать .torrent

Скачать

15 KB

Статус: проверено
Скачан: 0 раз
Размер: 1.41 GB
terms.php



Быстрый ответ

Имя:

      
Для отправки сообщений необходимо включить JavaScript
Показать сообщения:    

Текущее время: 09-Дек 22:27

Часовой пояс: UTC + 3


Вы можете начинать темы
Вы можете отвечать на сообщения
Вы не можете редактировать свои сообщения
Вы не можете удалять свои сообщения
Вы не можете голосовать в опросах
Вы не можете прикреплять файлы к сообщениям
Вы можете скачивать файлы