Одержимость / Whiplash (Дэмьен Шазелл / Damien Chazelle) [2014, США, музыка, драма, BDRip-AVC] MVO (iTunes) + Sub Rus, Eng + Original Eng


 

[Цитировать]

Одержимость
Whiplash
- Страна: США
Жанр: музыка, драма
Год выпуска: 2014
Продолжительность: 01:46:45
Перевод: Профессиональный (многоголосый закадровый) iTunes
Оригинальная аудиодорожка: английский
Cубтитры: Rus, Eng
Режиссер: Дэмьен Шазелл / Damien Chazelle
В ролях:
Майлз Теллер / Miles Teller
Дж.К. Симмонс / J.K. Simmons
Пол Райзер, Мелисса Бенойст, Остин Стоуэлл, Нат Лэнг, Крис Малки, Дэймон Гаптон, Макс Кэш, Сюанн Споук-ОписаниеМузыкальная психологическая драма американского режиссёра Дэмьена Шазеля. Майлз Теллер играет джазового барабанщика, который учится в одной из лучших музыкальных школ в стране, под опекой маэстро джаза (J. K. Simmons).-Сэмпл
Топ 250: 51
IMDb: 8.60 (12 138) Top 250 #38

Оскар, 2015 год
Победитель (3):
Лучшая мужская роль второго плана (Дж.К. Симмонс)
Лучший звук
Лучший монтаж


Золотой глобус, 2015 год
Победитель (1):
Лучшая мужская роль второго плана (Дж.К. Симмонс)

Британская академия, 2015 год
Победитель (3):
Лучшая мужская роль второго плана (Дж.К. Симмонс)
Лучший звук
Лучший монтаж

Гран-при в категории «Драматический фильм» и Приз зрительских симпатий в категории «Драматический фильм» на кинофестивале «Сандэнс», 2014 г. Фильм был высоко оценен критиками. На сайте Rotten Tomatoes фильм имеет рейтинг 96% на основе 186 рецензий со средним баллом 8,6 из 10. Название дано в честь инструментальной пьесы джазового композитора Хэнка Леви
Качество видео: BDRip-AVC WHIPLASH_2014_REMUX_HDCLUB
Формат видео: MKV
Видео: AVC 2471 Kbps 1152 x 480 (2.400) 23.976 fps
Аудио: AC-3 384 Kbps 6 channels, 48.0 KHz MVO iTunes
Аудио 2: AC-3 448 Kbps 6 channels, 48.0 KHz Eng
Формат субтитров: softsub (SRT)

MediaInfo | LogLog

x264 [info]: frame I:1181 Avg QP:13.38 size: 76403
x264 [info]: frame P:32587 Avg QP:15.16 size: 27969
x264 [info]: frame B:119808 Avg QP:18.30 size: 8647
x264 [info]: consecutive B-frames: 2.8% 2.8% 5.7% 19.9% 16.1% 28.6% 8.2% 10.3% 2.0% 0.9% 0.6% 1.5% 0.4% 0.2% 0.1%
x264 [info]: mb I I16..4: 9.6% 76.9% 13.6%
x264 [info]: mb P I16..4: 0.8% 10.8% 0.8% P16..4: 27.0% 36.5% 15.1% 2.2% 0.1% skip: 6.6%
x264 [info]: mb B I16..4: 0.0% 0.8% 0.1% B16..8: 34.5% 22.6% 4.6% direct: 3.8% skip:33.4% L0:46.7% L1:45.2% BI: 8.1%
x264 [info]: 8x8 transform intra:85.6% inter:58.0%
x264 [info]: direct mvs spatial:100.0% temporal:0.0%
x264 [info]: coded y,uvDC,uvAC intra: 93.7% 95.4% 90.0% inter: 19.1% 21.3% 9.4%
x264 [info]: i16 v,h,dc,p: 15% 13% 10% 63%
x264 [info]: i8 v,h,dc,ddl,ddr,vr,hd,vl,hu: 8% 8% 12% 10% 13% 12% 13% 11% 13%
x264 [info]: i4 v,h,dc,ddl,ddr,vr,hd,vl,hu: 9% 9% 6% 9% 16% 14% 14% 11% 12%
x264 [info]: i8c dc,h,v,p: 49% 17% 13% 20%
x264 [info]: Weighted P-Frames: Y:5.3% UV:2.7%
x264 [info]: ref P L0: 42.1% 5.4% 18.8% 7.5% 6.8% 4.8% 4.6% 2.3% 2.3% 1.8% 1.8% 1.6% 0.3% 0.0%
x264 [info]: ref B L0: 63.9% 14.3% 7.2% 4.1% 2.8% 2.6% 2.0% 1.3% 1.0% 0.6% 0.3%
x264 [info]: ref B L1: 91.3% 8.7%
x264 [info]: kb/s:2544.89
x264 [total]: encoded 153576 frames, 9.78 fps, 2544.89 kb/s, duration 4:21:44.95
Format : Matroska
Format version : Version 4 / Version 2
File size : 2.52 GiB
Duration : 1h 46mn
Overall bit rate : 3 379 Kbps
Encoded date : UTC 2015-02-12 09:16:17
Writing application : mkvmerge v6.7.0 ('Back to the Ground') 32bit built on Jan 8 2014 15:03:17
Writing library : libebml v1.3.0 + libmatroska v1.4.1
Video
ID : 1
Format : AVC
Format/Info : Advanced Video Codec
Format profile : High@L4.1
Format settings, CABAC : Yes
Format settings, ReFrames : 12 frames
Codec ID : V_MPEG4/ISO/AVC
Duration : 1h 46mn
Bit rate : 2 480 Kbps
Width : 1 152 pixels
Height : 480 pixels
Display aspect ratio : 2.40:1
Frame rate mode : Constant
Frame rate : 23.976 fps
Color space : YUV
Chroma subsampling : 4:2:0
Bit depth : 8 bits
Scan type : Progressive
Bits/(Pixel*Frame) : 0.187
Stream size : 1.85 GiB (73%)
Title : Whiplash [rutracker.org]
Writing library : x264 core 144 r2525kMod 40bb568
Encoding settings : cabac=1 / ref=12 / deblock=1:-2:-1 / analyse=0x3:0x133 / me=umh / subme=11 / psy=1 / fade_compensate=0.00 / psy_rd=1.00:0.05 / mixed_ref=1 / me_range=32 / chroma_me=1 / trellis=2 / 8x8dct=1 / cqm=0 / deadzone=21,11 / fast_pskip=0 / chroma_qp_offset=-3 / threads=12 / lookahead_threads=3 / sliced_threads=0 / nr=0 / decimate=1 / interlaced=0 / bluray_compat=0 / constrained_intra=0 / fgo=0 / bframes=14 / b_pyramid=2 / b_adapt=2 / b_bias=0 / direct=3 / weightb=1 / open_gop=0 / weightp=2 / keyint=250 / keyint_min=23 / scenecut=40 / intra_refresh=0 / rc_lookahead=80 / rc=crf / mbtree=0 / crf=17.8000 / qcomp=0.60 / qpmin=0 / qpmax=69 / qpstep=4 / vbv_maxrate=50000 / vbv_bufsize=62500 / crf_max=0.0 / nal_hrd=none / filler=0 / ip_ratio=1.40 / pb_ratio=1.30 / aq=3:0.90
Language : English
Default : Yes
Forced : No
Audio #1
ID : 2
Format : AC-3
Format/Info : Audio Coding 3
Mode extension : CM (complete main)
Format settings, Endianness : Big
Codec ID : A_AC3
Duration : 1h 46mn
Bit rate mode : Constant
Bit rate : 384 Kbps
Channel(s) : 6 channels
Channel positions : Front: L C R, Side: L R, LFE
Sampling rate : 48.0 KHz
Bit depth : 16 bits
Compression mode : Lossy
Stream size : 293 MiB (11%)
Title : MVO [iTunes]
Language : Russian
Default : Yes
Forced : No
Audio #2
ID : 3
Format : AC-3
Format/Info : Audio Coding 3
Mode extension : CM (complete main)
Format settings, Endianness : Big
Codec ID : A_AC3
Duration : 1h 46mn
Bit rate mode : Constant
Bit rate : 448 Kbps
Channel(s) : 6 channels
Channel positions : Front: L C R, Side: L R, LFE
Sampling rate : 48.0 KHz
Bit depth : 16 bits
Compression mode : Lossy
Stream size : 342 MiB (13%)
Title : Original
Language : English
Default : No
Forced : No
Text #1
ID : 4
Format : UTF-8
Codec ID : S_TEXT/UTF8
Codec ID/Info : UTF-8 Plain Text
Title : Full
Language : Russian
Default : No
Forced : No
Text #2
ID : 5
Format : UTF-8
Codec ID : S_TEXT/UTF8
Codec ID/Info : UTF-8 Plain Text
Title : Full
Language : English
Default : No
Forced : No
Text #3
ID : 6
Format : UTF-8
Codec ID : S_TEXT/UTF8
Codec ID/Info : UTF-8 Plain Text
Title : SDH
Language : English
Default : No
Forced : No
Menu
00:00:00.000 : en:00:00:00.000
00:06:51.828 : en:00:06:51.828
00:14:34.457 : en:00:14:34.457
00:24:26.382 : en:00:24:26.382
00:30:06.096 : en:00:30:06.096
00:35:43.975 : en:00:35:43.975
00:43:31.359 : en:00:43:31.359
00:46:55.312 : en:00:46:55.312
00:53:12.481 : en:00:53:12.481
01:02:37.504 : en:01:02:37.504
01:10:30.560 : en:01:10:30.560
01:14:03.606 : en:01:14:03.606
01:17:48.789 : en:01:17:48.789
01:23:06.106 : en:01:23:06.106
01:25:28.290 : en:01:25:28.290
01:31:56.219 : en:01:31:56.219

Скриншоты | Rip vs Source





Source



Показать сообщения:    

Текущее время: 11-Дек 12:55

Часовой пояс: UTC + 3


Вы не можете начинать темы
Вы не можете отвечать на сообщения
Вы не можете редактировать свои сообщения
Вы не можете удалять свои сообщения
Вы не можете голосовать в опросах
Вы не можете прикреплять файлы к сообщениям
Вы не можете скачивать файлы