Хардкор / Шлюхи / Самый откровенный / Hardcore (Дэннис Илиадис / Dennis Iliadis) [2004, Греция, драма, криминал, DVDRip] AVO (Сергей Кузнецов)


Статистика раздачи [Обновить пиров]
Размер:  1.45 GB   |    Зарегистрирован:  1 год 1 месяц   |    Скачан:  0 раз

Полного источника не было: Никогда

 
   
 
 
 

[Цитировать]

Хардкор / Шлюхи / Самый откровенный / Hardcore
Страна: Греция
Жанр: драма, криминал
Год выпуска: 2004
Продолжительность: 01:35:34
Перевод: Авторский (одноголосый закадровый) Сергей Кузнецов
Cубтитры: нет
Оригинальная аудиодорожка: нет
Режиссер: Дэннис Илиадис / Dennis Iliadis
В ролях: Катерина Цавалу /Katerina Tsavalou/, Данай Скиади /Danai Skiadi/, Иоаннис Папзисис /Ioannis Papazisis/, Омирос Пулакис /Omiros Poulakis/, Андреас Марианос /Andreas Marianos/, Димитрис Лиолиос /Dimitris Liolios/, Константинос Аварикиотис /Konstadinos Avarikiotis/, Яннис Станкоглу /Yannis Stankoglou/, Антонис Ператикос /Antonis Peratikos/, Стелиос Христофоридис /Stelios Christoforidis/
О фильме: Нашумевший фильм молодого греческого режиссера Дэнниса Илиадиса о четырех юных проститутках в современных Афинах - провокационный и свежий взгляд на древнейшую профессию.
Фильм отмечен критиками журнала Variety как один из лучших фильмов новых европейских режиссеров 2005 года, получил престижную премию German Independence Award. Малобюджетная картина хорошо продавалась, что говорит о способности Илиадиса, как режиссера, заниматься творчеством, будучи ограниченным в средствах.
Доп. информация: http://www.imdb.com/title/tt0396630/
Исходник: http://teatrix.ru/viewtopic.php?t=7370
Сэмпл: http://rusfolder.com/42932611
Качество видео: DVDRip
Формат видео: AVI
Видео: 688x384 (1.79:1), 25 fps, XviD build 73 ~1969 kbps avg, 0.29 bit/pixel
Аудио: 48 kHz, AC3 Dolby Digital, 2/0 (L,R) ch, ~192 kbps avg

MediaInfo

Общее
Полное имя : E:\Фильмы\Хардкор (Шлюхи)\Hardcore.2004.DVDRip.avi
Формат : AVI
Формат/Информация : Audio Video Interleave
Размер файла : 1,45 Гбайт
Продолжительность : 1 ч. 35 м.
Общий поток : 2170 Кбит/сек
Программа кодирования : VirtualDubMod 1.5.10.2 (build 2540/release)
Библиотека кодирования : VirtualDubMod build 2540/release
Правообладатель : rip by Judas_X
Видео
Идентификатор : 0
Формат : MPEG-4 Visual
Профиль формата : Advanced Simple@L5
Параметр BVOP формата : 1
Параметр QPel формата : Нет
Параметр GMC формата : Без точки перехода
Параметр матрицы формата : Выборочная
Идентификатор кодека : XVID
Идентификатор кодека/Подсказка : XviD
Продолжительность : 1 ч. 35 м.
Битрейт : 1969 Кбит/сек
Ширина : 688 пикселей
Высота : 384 пикселя
Соотношение сторон : 16:9
Частота кадров : 25,000 кадров/сек
Цветовое пространство : YUV
Субдискретизация насыщенности : 4:2:0
Битовая глубина : 8 бит
Тип развёртки : Прогрессивная
Метод сжатия : С потерями
Бит/(Пиксели*Кадры) : 0.298
Размер потока : 1,31 Гбайт (91%)
Библиотека кодирования : XviD 73
Аудио
Идентификатор : 1
Формат : AC-3
Формат/Информация : Audio Coding 3
Расширение режима : CM (complete main)
Параметр Endianness формата : Big
Идентификатор кодека : 2000
Продолжительность : 1 ч. 35 м.
Вид битрейта : Постоянный
Битрейт : 192 Кбит/сек
Каналы : 2 канала
Расположение каналов : Front: L R
Частота : 48,0 КГц
Битовая глубина : 16 бит
Метод сжатия : С потерями
Размер потока : 131 Мбайт (9%)
Выравнивание : Разделение по промежуткам
Продолжительность промежутка : 40 мс. (1,00 видеокадр)
Время предзагрузки промежутка : 500 мс.

Сравнение

Old Rip:

New Rip:
[teatrix.ru].t5996.torrent 
Торрент: Зарегистрирован [ 2015-10-10 09:49 ] · BC34A3A320AC5A1773397842D89E8E5C4BE07FFD

Скачать .torrent

Скачать

15 KB

Статус: проверено
Скачан: 0 раз
Размер: 1.45 GB
terms.php



Быстрый ответ

Имя:

      
Для отправки сообщений необходимо включить JavaScript
Показать сообщения:    

Текущее время: 07-Дек 21:16

Часовой пояс: UTC + 3


Вы можете начинать темы
Вы можете отвечать на сообщения
Вы не можете редактировать свои сообщения
Вы не можете удалять свои сообщения
Вы не можете голосовать в опросах
Вы не можете прикреплять файлы к сообщениям
Вы можете скачивать файлы