Женщина из супермаркета / Supermarket Woman / Sûpâ no onna (Юдзо Итами / Juzo Itami) [1996, Япония, комедия, DVDRip] Sub Rus, Eng + Original Jap


Статистика раздачи [Обновить пиров]
Размер:  1.43 GB   |    Зарегистрирован:  1 год 1 месяц   |    Скачан:  0 раз

Полного источника не было: Никогда

 
   
 
 
 

[Цитировать]

Женщина из супермаркета / Supermarket Woman / Sûpâ no onna
Страна: Япония
Жанр: комедия
Год выпуска: 1996
Продолжительность: 02:06:38
Перевод: Субтитры / Severnyj
Cубтитры: русские, английские
Оригинальная аудиодорожка: японский
Режиссер: Дзюдзо Итами / Juzo Itami
В ролях: Нобухико Миямото, Масахико Цугава, Рюноскэ Канэда, Сэн Яно, Наомаса Мусака, Теэй Такахаси, Юри Мияке, Такэдзе Аки, Акико Мацумото
Описание: После открытия крупного магазина прямо рядом с супермаркетом, которым управляет наш герой Горо, единственный шанс обойти конкурента - помощь его бывшей одноклассницы Ханако. Весьма энергичная женщина, она живо поднимает ему настроение... и продажи!
II Сэмпл II IMDB II
Релиз группа:

Доп. информация:
За исходник спасибо colt451
Качество видео: DVDRip
Формат видео: AVI
Видео: Xvid 688x384 (16:9) 23.976fps Bit rate 1379Kbps b/p 0.218
Аудио: AC3 48.0 KHz 2ch. 224kbps jap
Формат субтитров: softsub (SRT)

MediaInfo

Общее
Полное имя : E:\torrent\Supermarket.Woman.1996.DVDRip\Supermarket.Woman.1996.DVDRip.avi
Формат : AVI
Формат/Информация : Audio Video Interleave
Размер файла : 1,43 Гбайт
Продолжительность : 2 ч. 6 м.
Общий поток : 1613 Кбит/сек
Программа кодирования : VirtualDubMod 1.5.10.3 (build 2550/release)
Библиотека кодирования : VirtualDub build 35512/release
Видео
Идентификатор : 0
Формат : MPEG-4 Visual
Профиль формата : Advanced Simple@L5
Параметр BVOP формата : 2
Параметр QPel формата : Нет
Параметр GMC формата : Без точки перехода
Параметр матрицы формата : Default (MPEG)
Идентификатор кодека : XVID
Идентификатор кодека/Подсказка : XviD
Продолжительность : 2 ч. 6 м.
Битрейт : 1379 Кбит/сек
Ширина : 688 пикселей
Высота : 384 пикселя
Соотношение сторон : 16:9
Частота кадров : 23,976 кадра/сек
Цветовое пространство : YUV
Субдискретизация насыщенности : 4:2:0
Битовая глубина : 8 бит
Тип развёртки : Прогрессивная
Метод сжатия : С потерями
Бит/(Пиксели*Кадры) : 0.218
Размер потока : 1,22 Гбайт (86%)
Библиотека кодирования : XviD 1.2.1 (UTC 2008-12-04)
Аудио
Идентификатор : 1
Формат : AC-3
Формат/Информация : Audio Coding 3
Расширение режима : CM (complete main)
Параметр Endianness формата : Big
Идентификатор кодека : 2000
Продолжительность : 2 ч. 6 м.
Вид битрейта : Постоянный
Битрейт : 224 Кбит/сек
Каналы : 2 канала
Расположение каналов : Front: L R
Частота : 48,0 КГц
Битовая глубина : 16 бит
Метод сжатия : С потерями
Размер потока : 203 Мбайт (14%)
Выравнивание : Разделение по промежуткам
Продолжительность промежутка : 42 мс. (1,00 видеокадр)
Время предзагрузки промежутка : 500 мс.

Скриншот c названием фильма

Скриншоты


Пример субтитров

10
00:00:41,460 --> 00:00:44,049
Невероятно низкие цены!
11
00:00:50,267 --> 00:00:52,896
"Честный Горо"
12
00:01:00,451 --> 00:01:01,079
Где мой брат?
13
00:01:01,160 --> 00:01:03,246
Он всё еще дома.
14
00:01:17,939 --> 00:01:21,361
Босс! Пожалуйста, проснитесь!
15
00:01:21,485 --> 00:01:26,328
Горо! Проснитесь!!
16
00:01:26,828 --> 00:01:27,997
Босс!
17
00:01:30,251 --> 00:01:34,466
Что случилось, парни?
18
00:01:34,550 --> 00:01:35,718
Что такое?
19
00:01:35,844 --> 00:01:37,973
Большое открытие...
20
00:01:38,056 --> 00:01:40,269
..."Мира выгодных сделок", вот что!
21
00:01:40,352 --> 00:01:43,147
Пойду посмотрю.
22
00:01:43,232 --> 00:01:45,819
Там невероятные скидки.
23
00:01:46,236 --> 00:01:48,323
Они нас уничтожат.
24
00:01:48,407 --> 00:01:52,246
Ну, закроемся, так закроемся.
25
00:01:54,709 --> 00:01:56,753
Сейчас не время пить!
26
00:01:59,550 --> 00:02:03,600
Идите, ради Бога!
27
00:02:03,724 --> 00:02:06,855
Это вопрос жизни и смерти!
28
00:02:08,356 --> 00:02:10,651
Хлеб. Скидка 30%.
29
00:02:11,029 --> 00:02:13,323
Яйца, 58 йен.
30
00:02:13,907 --> 00:02:14,909
Вот это выгодное предложение!
[teatrix.ru].t5997.torrent 
Торрент: Зарегистрирован [ 2015-10-10 09:49 ] · 8D9D1434FE64963F2E83E868261B6CF664E7CDF9

Скачать .torrent

Скачать

15 KB

Статус: проверено
Скачан: 0 раз
Размер: 1.43 GB
terms.php



Быстрый ответ

Имя:

      
Для отправки сообщений необходимо включить JavaScript
Показать сообщения:    

Текущее время: 10-Дек 02:14

Часовой пояс: UTC + 3


Вы можете начинать темы
Вы можете отвечать на сообщения
Вы не можете редактировать свои сообщения
Вы не можете удалять свои сообщения
Вы не можете голосовать в опросах
Вы не можете прикреплять файлы к сообщениям
Вы можете скачивать файлы