Странный маленький кот / Странная маленькая кошечка / Das merkwürdige Kätzchen / The strange little cat (Рамон Зюрхер / Ramon Zürcher) [2013, Германия, Драма, комедия, DVDRip-AVC] VO + Sub Rus + Original Ger


Статистика раздачи [Обновить пиров]
Размер:  1.16 GB   |    Зарегистрирован:  1 год 1 месяц   |    Скачан:  0 раз

Полного источника не было: Никогда

 
   
 
 
 

[Цитировать]

Странный маленький кот / Странная маленькая кошечка / Das merkwürdige Kätzchen / The strange little cat
Страна: Германия
Жанр: Драма, комедия
Год выпуска: 2013
Продолжительность: 01:09:11
Перевод: Одноголосый закадровый
Cубтитры: внешние русские, VOBSub-английские, немецкие, испанские, португальские, французские.
Оригинальная аудиодорожка: немецкий
Режиссер: Рамон Зюрхер / Ramon Zürcher
В ролях: Леон Алан Бирсдорф, Матиас Диттмер, Лиа Дрэгер, Моника Хеттерле, Густав Кернер, Армин Маревски
Описание: Обычное утро выходного дня в среднестатистической немецкой семье. Брат и сестра Карин и Саймон приехали навестить родителей и младшую сестру Клару. Вечером к ним на ужин должны заехать и другие родственники. Кто-то отправляется в магазин за покупками и по дороге забирает на машине бабушку, кто-то готовит на кухне, кто-то бездельничает и не хочет вылезать из постели. Под ногами у членов семьи крутятся домашние питомцы: большой черный пес и рыжая кошка. Однако в движениях героев прослеживается странная механистичность, их разговоры друг с другом сухи и скупы, а искренние чувства заменяет тотальная отчужденность…
Доп. информация: Фильм взят отсюда http://teatrix.ru/viewtopic.php?t=6009
Сэмпл: http://multi-up.com/1032503
Качество видео: DVDRip-AVC
Формат видео: MKV
Видео: AVC at 2000 Кбит/сек : 652 x 572 (1.664) at 25.000 fps
Аудио 1: AC-3 at 192 Кбит/сек : 2 канала, 48,0 КГц Language : ru
Аудио 2: AC-3 at 192 Кбит/сек : 2 канала, 48,0 КГц Language : de
Формат субтитров: softsub (SRT)
Доп. информация о субтитрах: Русские внешние (creo140)

MediaInfo

Общее
Уникальный идентификатор : 252040275563117985800366789477955098767 (0xBD9D30FEED0DD3E3919FB75677FD588F)
Полное имя : F:\С моей озвучкой\Странный маленький кот\the strange little cat (1).mkv
Формат : Matroska
Версия формата : Version 4 / Version 2
Размер файла : 1,16 Гбайт
Продолжительность : 1 ч. 9 м.
Общий поток : 2392 Кбит/сек
Дата кодирования : UTC 2015-02-11 19:37:14
Программа кодирования : mkvmerge v6.1.0 ('Old Devil') built on Mar 4 2013 09:10:42
Библиотека кодирования : libebml v1.3.0 + libmatroska v1.4.0
_STATISTICS_WRITING_APP : mkvmerge v7.1.0 ('Good Love') 64bit built on Jul 27 2014 13:06:55
_STATISTICS_WRITING_DATE_UTC : 2014-08-25 19:26:10
_STATISTICS_TAGS : BPS DURATION NUMBER_OF_FRAMES NUMBER_OF_BYTES
DURATION : 01:07:47.478000000
NUMBER_OF_FRAMES : 655
NUMBER_OF_BYTES : 590384
Видео
Идентификатор : 1
Формат : AVC
Формат/Информация : Advanced Video Codec
Профиль формата : High@L4.1
Параметр CABAC формата : Да
Параметр ReFrames формата : 8 кадров
Идентификатор кодека : V_MPEG4/ISO/AVC
Продолжительность : 1 ч. 9 м.
Битрейт : 2000 Кбит/сек
Ширина : 652 пикселя
Высота : 572 пикселя
Соотношение сторон : 1,664
Режим частоты кадров : Постоянный
Частота кадров : 25,000 кадров/сек
Цветовое пространство : YUV
Субдискретизация насыщенности : 4:2:0
Битовая глубина : 8 бит
Тип развёртки : Прогрессивная
Бит/(Пиксели*Кадры) : 0.215
Размер потока : 970 Мбайт (82%)
Библиотека кодирования : x264 core 142 r2453 ea0ca51
Настройки программы : cabac=1 / ref=8 / deblock=1:0:0 / analyse=0x3:0x133 / me=umh / subme=9 / psy=1 / psy_rd=1.00:0.15 / mixed_ref=1 / me_range=16 / chroma_me=1 / trellis=2 / 8x8dct=1 / cqm=0 / deadzone=21,11 / fast_pskip=1 / chroma_qp_offset=-3 / threads=12 / lookahead_threads=1 / sliced_threads=0 / nr=0 / decimate=0 / interlaced=0 / bluray_compat=0 / constrained_intra=0 / bframes=3 / b_pyramid=2 / b_adapt=2 / b_bias=0 / direct=3 / weightb=1 / open_gop=0 / weightp=2 / keyint=250 / keyint_min=25 / scenecut=40 / intra_refresh=0 / rc_lookahead=60 / rc=2pass / mbtree=1 / bitrate=2000 / ratetol=3.0 / qcomp=0.60 / qpmin=0 / qpmax=69 / qpstep=4 / cplxblur=20.0 / qblur=0.5 / vbv_maxrate=62500 / vbv_bufsize=78125 / nal_hrd=none / filler=0 / ip_ratio=1.40 / aq=1:1.00
Default : Да
Forced : Нет
Аудио #1
Идентификатор : 2
Формат : AC-3
Формат/Информация : Audio Coding 3
Расширение режима : CM (complete main)
Параметр Endianness формата : Big
Идентификатор кодека : A_AC3
Продолжительность : 1 ч. 9 м.
Вид битрейта : Постоянный
Битрейт : 192 Кбит/сек
Каналы : 2 канала
Расположение каналов : Front: L R
Частота : 48,0 КГц
Битовая глубина : 16 бит
Метод сжатия : С потерями
Размер потока : 95,0 Мбайт (8%)
Язык : Russian
Default : Нет
Forced : Нет
Аудио #2
Идентификатор : 3
Формат : AC-3
Формат/Информация : Audio Coding 3
Расширение режима : CM (complete main)
Параметр Endianness формата : Big
Идентификатор кодека : A_AC3
Продолжительность : 1 ч. 9 м.
Вид битрейта : Постоянный
Битрейт : 192 Кбит/сек
Каналы : 2 канала
Расположение каналов : Front: L R
Частота : 48,0 КГц
Битовая глубина : 16 бит
Метод сжатия : С потерями
Размер потока : 95,0 Мбайт (8%)
Язык : German
Default : Нет
Forced : Нет
Текст #1
Идентификатор : 4
Формат : VobSub
Режим смешивания : zlib
Идентификатор кодека : S_VOBSUB
Идентификатор кодека/Информация : The same subtitle format used on DVDs
Язык : German
Default : Да
Forced : Нет
Текст #2
Идентификатор : 5
Формат : VobSub
Режим смешивания : zlib
Идентификатор кодека : S_VOBSUB
Идентификатор кодека/Информация : The same subtitle format used on DVDs
Язык : English
Default : Нет
Forced : Нет
Текст #3
Идентификатор : 6
Формат : VobSub
Режим смешивания : zlib
Идентификатор кодека : S_VOBSUB
Идентификатор кодека/Информация : The same subtitle format used on DVDs
Язык : French
Default : Нет
Forced : Нет
Текст #4
Идентификатор : 7
Формат : VobSub
Режим смешивания : zlib
Идентификатор кодека : S_VOBSUB
Идентификатор кодека/Информация : The same subtitle format used on DVDs
Язык : Spanish
Default : Нет
Forced : Нет
Текст #5
Идентификатор : 8
Формат : VobSub
Режим смешивания : zlib
Идентификатор кодека : S_VOBSUB
Идентификатор кодека/Информация : The same subtitle format used on DVDs
Язык : Portuguese
Default : Нет
Forced : Нет

Скриншоты

[teatrix.ru].t5998.torrent 
Торрент: Зарегистрирован [ 2015-10-10 09:49 ] · 83F1B0042700DEE31357C271750B26DF481BF5B6

Скачать .torrent

Скачать

12 KB

Статус: проверено
Скачан: 0 раз
Размер: 1.16 GB
terms.php



Быстрый ответ

Имя:

      
Для отправки сообщений необходимо включить JavaScript
Показать сообщения:    

Текущее время: 04-Дек 09:04

Часовой пояс: UTC + 3


Вы можете начинать темы
Вы можете отвечать на сообщения
Вы не можете редактировать свои сообщения
Вы не можете удалять свои сообщения
Вы не можете голосовать в опросах
Вы не можете прикреплять файлы к сообщениям
Вы можете скачивать файлы