Уехать, чтобы жить / Partir to live (Доминго Гарсия-Уидобро / Domingo García-Huidobro) [2012, Чили, драма, SATRip]


Статистика раздачи [Обновить пиров]
Размер:  746 MB   |    Зарегистрирован:  1 год 1 месяц   |    Скачан:  1 раз

Полного источника не было: 5 месяцев 15 дней

 
   
 
 
 

[Цитировать]

Уехать, чтобы жить / Partir to live
Страна: Чили
Жанр: драма
Год выпуска: 2012
Продолжительность: 01:04:47
Перевод: Не требуется
Cубтитры: нет
Оригинальная аудиодорожка: нет
Режиссер: Доминго Гарсия-Уидобро / Domingo García-Huidobro
В ролях: Мартин Кастильо, Хавьера Диас де Вальдес
Описание: Молодой исследователь паранормальных явлений отправляется в путешествие, в котором трудно отделить реальное от воображаемого, настоящее от прошлого...
Доп. информация: Рип с канала "Культура"
Сэмпл: http://multi-up.com/1032241
Качество видео: SATRip
Формат видео: AVI
Видео: MPEG4, XviD, 720x400 (16/9), 25.000 fps, 1 489 Kbps (0.207 bit/pixel)
Аудио: AC-3, 48.0 KHz, 1 ch, 112 Kbps, CBR

MediaInfo

Общее
Полное имя : K:\Уехать, чтобы жить.avi
Формат : AVI
Формат/Информация : Audio Video Interleave
Размер файла : 746 Мбайт
Продолжительность : 1 ч. 4 м.
Общий поток : 1611 Кбит/сек
Название фильма : Уехать, чтобы жить / Partir to live (2012)
Программа кодирования : VirtualDubMod 1.5.10.2 (build 2540/release)
Библиотека кодирования : VirtualDubMod build 2540/release
Правообладатель : miha2154
Видео
Идентификатор : 0
Формат : MPEG-4 Visual
Профиль формата : Advanced Simple@L5
Параметр BVOP формата : 1
Параметр QPel формата : Нет
Параметр GMC формата : Без точки перехода
Параметр матрицы формата : Выборочная
Идентификатор кодека : XVID
Идентификатор кодека/Подсказка : XviD
Продолжительность : 1 ч. 4 м.
Битрейт : 1489 Кбит/сек
Ширина : 720 пикселей
Высота : 400 пикселей
Соотношение сторон : 16:9
Частота кадров : 25,000 кадров/сек
Цветовое пространство : YUV
Субдискретизация насыщенности : 4:2:0
Битовая глубина : 8 бит
Тип развёртки : Прогрессивная
Метод сжатия : С потерями
Бит/(Пиксели*Кадры) : 0.207
Размер потока : 690 Мбайт (92%)
Библиотека кодирования : XviD 65
Аудио
Идентификатор : 1
Формат : AC-3
Формат/Информация : Audio Coding 3
Расширение режима : CM (complete main)
Параметр Endianness формата : Big
Идентификатор кодека : 2000
Продолжительность : 1 ч. 4 м.
Вид битрейта : Постоянный
Битрейт : 112 Кбит/сек
Каналы : 1 канал
Расположение каналов : Front: C
Частота : 48,0 КГц
Битовая глубина : 16 бит
Метод сжатия : С потерями
Размер потока : 51,9 Мбайт (7%)
Выравнивание : Разделение по промежуткам
Продолжительность промежутка : 40 мс. (1,00 видеокадр)
Время предзагрузки промежутка : 500 мс.

Скриншоты

[teatrix.ru].t6000.torrent 
Торрент: Зарегистрирован [ 2015-10-10 09:49 ] · 7141EFF7F30C20C6C953A016120CB135B6A534DE

Скачать .torrent

Скачать

15 KB

Статус: проверено
Скачан: 1 раз
Размер: 746 MB
terms.php



Быстрый ответ

Имя:

      
Для отправки сообщений необходимо включить JavaScript
Показать сообщения:    

Текущее время: 08-Дек 07:06

Часовой пояс: UTC + 3


Вы можете начинать темы
Вы можете отвечать на сообщения
Вы не можете редактировать свои сообщения
Вы не можете удалять свои сообщения
Вы не можете голосовать в опросах
Вы не можете прикреплять файлы к сообщениям
Вы можете скачивать файлы