Код неизвестен / Code inconnu: Recit incomplet de divers voyages / Code Unknown (Михаэль Ханеке / Michael Haneke) [2000, Франция, Германия, Румыния, драма, мелодрама, военный, BDRip-AVC] DVO (Екатеринбург Арт) + Original Fre + Sub Rus, Eng, Fre


 

[Цитировать]

Код неизвестен / Code inconnu: Recit incomplet de divers voyages / Code Unknown«Love has a language all its own»- Страна: Франция, Германия, Румыния
Жанр: драма, мелодрама, военный
Год выпуска: 2000
Продолжительность: 01:56:59-Перевод: Профессиональный (двухголосый закадровый) - Екатеринбург Арт
Оригинальная аудиодорожка: French
Cубтитры: Русские (форсированные - на румынскую речь, африканский малийский диалект) + русские (полные - R5), English (full), French (forced)
Навигация по главам: присутствует - 12 глав-Режиссер: Михаэль Ханеке / Michael Haneke
В ролях: Жюльет Бинош, Тьерри Нёвик, Йозеф Бирбихлер, Александр Хамиди, Маймуна Хелен Диарра, Она Лу Йенке, Джибрил Куят, Луминица Георгиу, Гренгута Харитон, Боб Николеску-Описание: Париж, наше время. Жан приезжает к старшему брату, фотокорреспонденту Жоржу, а тот отправился на очередную войну. Жан знакомится с подругой брата, актрисой Анн, которая недовольна постоянными отлучками Жоржа и решила избавиться от их будущего ребенка.
Анн не спешит сообщать Жану новый код от входной двери, и он в расстроенных чувствах устраивает ссору на улице с африканцем Амаду и нелегальной румынской иммигранткой Марией. Прибывшая полиция арестовывает Амаду и депортирует Марию. В один миг неизвестный код роковым образом меняет судьбы людей и завязывает историю, похожую на многоцветье Парижа — города, который задает загадки и не дает ответов.-
Download sample-Качество видео: BDRip-AVC | исх. BDRemux 1080p - thx: DarLeg
Формат: MKV-Видео: 1 132x612 (1.85:1), 23.976 fps, H.264 ~4500 kbps avg, 0.265 bit/pixel
Аудио №1: 48.0 kHz, AC3 Dolby Digital, 2/0 (L,R) ch, ~192 kbps | Профессиональный (двухголосый закадровый) - Екатеринбург Арт
Аудио №2: 48.0 kHz, AC3 Dolby Digital, 3/2 (L,C,R,l,r) + LFE ch, ~448 kbps | French-

MediaInfo

General
Unique ID : 211001544959928894840065238435937868675 (0x9EBD6B5C2975314894D2651272A75B83)
Complete name : D:\Фильмы\Рипы\Code inconnu. Recit incomplet de divers voyages.2000.BDRip-AVC.eFK tRuAVC.mkv
Format : Matroska
Format version : Version 4 / Version 2
File size : 4.20 GiB
Duration : 1h 56mn
Overall bit rate : 5 144 Kbps
Movie name : Код неизвестен / Code inconnu: Recit incomplet de divers voyages / Code Unknown (2000)
Encoded date : UTC 2015-02-08 19:37:27
Writing application : mkvmerge v7.2.0 ('On Every Street') 64bit built on Sep 13 2014 15:52:10
Writing library : libebml v1.3.0 + libmatroska v1.4.1
Attachements : cover.png
DURATION : 01:56:59.392000000
NUMBER_OF_FRAMES : 219356
NUMBER_OF_BYTES : 393085952
_STATISTICS_WRITING_APP : mkvmerge v7.2.0 ('On Every Street') 64bit built on Sep 13 2014 15:52:10
_STATISTICS_WRITING_DATE_UT : 2015-02-08 19:37:27
_STATISTICS_TAGS : BPS DURATION NUMBER_OF_FRAMES NUMBER_OF_BYTES
Video
ID : 1
Format : AVC
Format/Info : Advanced Video Codec
Format profile : High@L4.1
Format settings, CABAC : Yes
Format settings, ReFrames : 10 frames
Codec ID : V_MPEG4/ISO/AVC
Duration : 1h 56mn
Bit rate : 4 402 Kbps
Width : 1 132 pixels
Height : 612 pixels
Display aspect ratio : 1.85:1
Frame rate mode : Constant
Frame rate : 23.976 fps
Color space : YUV
Chroma subsampling : 4:2:0
Bit depth : 8 bits
Scan type : Progressive
Bits/(Pixel*Frame) : 0.265
Stream size : 3.60 GiB (86%)
Title : eFK tRuAVC
Writing library : x264 core 144 r2525kMod 40bb568
Encoding settings : cabac=1 / ref=10 / deblock=1:-3:-2 / analyse=0x3:0x133 / me=umh / subme=11 / psy=1 / fade_compensate=0.00 / psy_rd=1.10:0.05 / mixed_ref=1 / me_range=48 / chroma_me=1 / trellis=2 / 8x8dct=1 / cqm=0 / deadzone=21,11 / fast_pskip=0 / chroma_qp_offset=-3 / threads=12 / lookahead_threads=3 / sliced_threads=0 / nr=0 / decimate=1 / interlaced=0 / bluray_compat=0 / constrained_intra=0 / fgo=0 / bframes=16 / b_pyramid=2 / b_adapt=2 / b_bias=0 / direct=3 / weightb=1 / open_gop=0 / weightp=2 / keyint=250 / keyint_min=23 / scenecut=40 / intra_refresh=0 / rc_lookahead=60 / rc=crf / mbtree=0 / crf=20.5100 / qcomp=0.70 / qpmin=0 / qpmax=69 / qpstep=4 / vbv_maxrate=50000 / vbv_bufsize=62500 / crf_max=0.0 / nal_hrd=none / filler=0 / ip_ratio=1.25 / pb_ratio=1.15 / aq=3:0.85
Language : French
Default : Yes
Forced : No
Color primaries : BT.709
Transfer characteristics : BT.709
Matrix coefficients : BT.709
Color range : Limited
DURATION : 01:56:59.429000000
NUMBER_OF_FRAMES : 168298
NUMBER_OF_BYTES : 3949936177
_STATISTICS_WRITING_APP : mkvmerge v7.2.0 ('On Every Street') 64bit built on Sep 13 2014 15:52:10
_STATISTICS_WRITING_DATE_UT : 2015-02-08 19:37:27
_STATISTICS_TAGS : BPS DURATION NUMBER_OF_FRAMES NUMBER_OF_BYTES
Audio #1
ID : 2
Format : AC-3
Format/Info : Audio Coding 3
Mode extension : CM (complete main)
Format settings, Endianness : Big
Codec ID : A_AC3
Duration : 1h 56mn
Bit rate mode : Constant
Bit rate : 192 Kbps
Channel(s) : 2 channels
Channel positions : Front: L R
Sampling rate : 48.0 KHz
Bit depth : 16 bits
Compression mode : Lossy
Stream size : 161 MiB (4%)
Title : DVO (Екатеринбург Арт)
Language : Russian
Default : Yes
Forced : No
Audio #2
ID : 3
Format : AC-3
Format/Info : Audio Coding 3
Mode extension : CM (complete main)
Format settings, Endianness : Big
Codec ID : A_AC3
Duration : 1h 56mn
Bit rate mode : Constant
Bit rate : 448 Kbps
Channel(s) : 6 channels
Channel positions : Front: L C R, Side: L R, LFE
Sampling rate : 48.0 KHz
Bit depth : 16 bits
Compression mode : Lossy
Stream size : 375 MiB (9%)
Language : French
Default : No
Forced : No
Text #1
ID : 4
Format : UTF-8
Codec ID : S_TEXT/UTF8
Codec ID/Info : UTF-8 Plain Text
Title : forced
Language : Russian
Default : Yes
Forced : No
Text #2
ID : 5
Format : UTF-8
Codec ID : S_TEXT/UTF8
Codec ID/Info : UTF-8 Plain Text
Title : full (R5)
Language : Russian
Default : No
Forced : No
Text #3
ID : 6
Format : UTF-8
Codec ID : S_TEXT/UTF8
Codec ID/Info : UTF-8 Plain Text
Title : full
Language : English
Default : No
Forced : No
Text #4
ID : 7
Format : UTF-8
Codec ID : S_TEXT/UTF8
Codec ID/Info : UTF-8 Plain Text
Title : forced
Language : French
Default : No
Forced : No
Menu
00:00:00.000 : en:Chapter 01
00:12:08.519 : en:Chapter 02
00:22:11.204 : en:Chapter 03
00:32:08.760 : en:Chapter 04
00:40:47.945 : en:Chapter 05
00:51:18.617 : en:Chapter 06
00:58:19.329 : en:Chapter 07
01:07:28.044 : en:Chapter 08
01:14:03.188 : en:Chapter 09
01:22:18.892 : en:Chapter 10
01:32:39.011 : en:Chapter 11
01:44:24.007 : en:Chapter 12

x264 log

x264 [info]: frame I:738 Avg QP:18.94 size: 81789
x264 [info]: frame P:30574 Avg QP:21.00 size: 36526
x264 [info]: frame B:136986 Avg QP:21.50 size: 20242
x264 [info]: consecutive B-frames: 0.7% 1.1% 4.1% 14.6% 14.2% 41.2% 7.1% 3.3% 3.0% 3.2% 1.5% 0.9% 1.1% 1.3% 0.7% 0.7% 1.1%
x264 [info]: mb I I16..4: 7.5% 77.9% 14.6%
x264 [info]: mb P I16..4: 0.2% 9.0% 1.1% P16..4: 30.6% 37.0% 15.1% 1.4% 0.1% skip: 5.6%
x264 [info]: mb B I16..4: 0.0% 1.3% 0.1% B16..8: 38.2% 22.3% 5.6% direct: 7.7% skip:24.7% L0:47.8% L1:42.2% BI:10.0%
x264 [info]: 8x8 transform intra:87.0% inter:59.4%
x264 [info]: direct mvs spatial:100.0% temporal:0.0%
x264 [info]: coded y,uvDC,uvAC intra: 93.2% 86.4% 64.0% inter: 43.8% 28.3% 5.3%
x264 [info]: i16 v,h,dc,p: 60% 13% 8% 19%
x264 [info]: i8 v,h,dc,ddl,ddr,vr,hd,vl,hu: 10% 6% 8% 10% 15% 14% 13% 11% 12%
x264 [info]: i4 v,h,dc,ddl,ddr,vr,hd,vl,hu: 31% 7% 8% 6% 11% 11% 10% 8% 8%
x264 [info]: i8c dc,h,v,p: 42% 24% 18% 16%
x264 [info]: Weighted P-Frames: Y:3.5% UV:1.3%
x264 [info]: ref P L0: 36.2% 11.5% 18.2% 7.5% 6.9% 5.4% 5.1% 3.0% 3.0% 2.9% 0.2% 0.0%
x264 [info]: ref B L0: 58.4% 14.4% 9.0% 5.2% 4.2% 3.7% 3.2% 1.4% 0.5%
x264 [info]: ref B L1: 89.6% 10.4%
x264 [info]: kb/s:4501.72
x264 [total]: encoded 168298 frames, 6.83 fps, 4501.72 kb/s, duration 6:50:35.47

Comparison

Source

Encode



Показать сообщения:    

Текущее время: 08-Дек 11:01

Часовой пояс: UTC + 3


Вы не можете начинать темы
Вы не можете отвечать на сообщения
Вы не можете редактировать свои сообщения
Вы не можете удалять свои сообщения
Вы не можете голосовать в опросах
Вы не можете прикреплять файлы к сообщениям
Вы не можете скачивать файлы