Голубой отель Буревестник / Petrel Hotel Blue / Kaien Hoteru burû (Кодзи Вакамацу / Koji Wakamatsu) [2012, Япония, драма, DVDRip] Sub Rus, Eng


Статистика раздачи [Обновить пиров]
Размер:  1.4 GB   |    Зарегистрирован:  1 год 2 месяца   |    Скачан:  0 раз

Полного источника не было: Никогда

 
   
 
 
 

[Цитировать]

Голубой отель Буревестник / Petrel Hotel Blue / Kaien Hoteru burû
Страна: Япония
Студия: Skhole Co., Wakamatsu Production
Жанр: драма
Год выпуска: 2012
Продолжительность: 01:23:16
Перевод: Субтитры (Вероника)
Cубтитры: русские, английские
Оригинальная аудиодорожка: японский
Режиссер: Кодзи Вакамацу / Koji Wakamatsu
В ролях: Канако Хигаси, Хиромаса Хиросуе, Арата Иура, Го Джибики, Хитоми Катаяма, Мегуми Маки, Рюджи Мидзуками, Сеироку Наказава, Сима Ониси, Нао Окабе
Описание: Стремясь отомстить Йодзи, Юкио едет в место окруженное морем, пустыней и лавой, покрывающей горные вершины. Там Юкио встречает таинственную девушку по имени Рика, которая очаровывает его. Сходя с ума от того, что не может заполучить ее, он сталкивается с бывшим подчиненным Йодзи — Масакадзу и детективом, который преследует Рику.
II Сэмпл II IMDB II
Релиз группа:

Качество видео: DVDRip (Petrel Hotel Blue (2012) NTSC DVD5)
Формат видео: AVI
Видео: Xvid 720x400 (16:9) 23.976fps Bit rate 2199Kbps b/p 0.318
Аудио: AC3 48.0 KHz 2ch. 192kbps jap
Формат субтитров: softsub (SRT)

MediaInfo

Общее
Полное имя : E:\torrent\Petrel.Hotel.Blue.2012.DVDRip\Petrel.Hotel.Blue.2012.DVDRip.avi
Формат : AVI
Формат/Информация : Audio Video Interleave
Размер файла : 1,40 Гбайт
Продолжительность : 1 ч. 23 м.
Общий поток : 2400 Кбит/сек
Программа кодирования : VirtualDubMod 1.5.10.3 (build 2550/release)
Библиотека кодирования : VirtualDubMod build 2550/release
Видео
Идентификатор : 0
Формат : MPEG-4 Visual
Профиль формата : Advanced Simple@L5
Параметр BVOP формата : 2
Параметр QPel формата : Нет
Параметр GMC формата : Без точки перехода
Параметр матрицы формата : Default (MPEG)
Идентификатор кодека : XVID
Идентификатор кодека/Подсказка : XviD
Продолжительность : 1 ч. 23 м.
Битрейт : 2199 Кбит/сек
Ширина : 720 пикселей
Высота : 400 пикселей
Соотношение сторон : 16:9
Частота кадров : 23,976 кадра/сек
Цветовое пространство : YUV
Субдискретизация насыщенности : 4:2:0
Битовая глубина : 8 бит
Тип развёртки : Прогрессивная
Метод сжатия : С потерями
Бит/(Пиксели*Кадры) : 0.318
Размер потока : 1,28 Гбайт (92%)
Библиотека кодирования : XviD 1.2.1 (UTC 2008-12-04)
Аудио
Идентификатор : 1
Формат : AC-3
Формат/Информация : Audio Coding 3
Расширение режима : CM (complete main)
Параметр Endianness формата : Big
Идентификатор кодека : 2000
Продолжительность : 1 ч. 23 м.
Вид битрейта : Постоянный
Битрейт : 192 Кбит/сек
Каналы : 2 канала
Расположение каналов : Front: L R
Частота : 48,0 КГц
Битовая глубина : 16 бит
Метод сжатия : С потерями
Размер потока : 114 Мбайт (8%)
Выравнивание : Разделение по промежуткам
Продолжительность промежутка : 42 мс. (1,00 видеокадр)
Время предзагрузки промежутка : 500 мс.

Скриншот c названием фильма

Скриншоты


[teatrix.ru].t6008.torrent 
Торрент: Зарегистрирован [ 2015-10-10 09:49 ] · D0B4A10818BC1EF0E03C6FC61992112F3D38C6BF

Скачать .torrent

Скачать

15 KB

Статус: проверено
Скачан: 0 раз
Размер: 1.4 GB
terms.php



Быстрый ответ

Имя:

      
Для отправки сообщений необходимо включить JavaScript
Показать сообщения:    

Текущее время: 11-Дек 11:05

Часовой пояс: UTC + 3


Вы можете начинать темы
Вы можете отвечать на сообщения
Вы не можете редактировать свои сообщения
Вы не можете удалять свои сообщения
Вы не можете голосовать в опросах
Вы не можете прикреплять файлы к сообщениям
Вы можете скачивать файлы