Странный маленький кот / Странная маленькая кошечка / Das merkwürdige Kätzchen / The strange little cat (Рамон Зюрхер / Ramon Zürcher) [2013, Германия, Драма, комедия, DVDRip-AVC] + Sub Rus + Original Ger


Статистика раздачи [Обновить пиров]
Размер:  1.06 GB   |    Зарегистрирован:  1 год 2 месяца   |    Скачан:  0 раз

Полного источника не было: Никогда

 
   
 
 
 

[Цитировать]

Странный маленький кот / Странная маленькая кошечка / Das merkwürdige Kätzchen / The strange little cat
Страна: Германия
Жанр: Драма, комедия
Год выпуска: 2013
Продолжительность: 01:09:11
Перевод: Субтитры: внешние русские, VOBSub-английские, немецкие, испанские
португальские, французские
Cубтитры: русские creo140
Оригинальная аудиодорожка: немецкий
Режиссер: Рамон Зюрхер / Ramon Zürcher
В ролях: Леон Алан Бирсдорф, Матиас Диттмер, Лиа Дрэгер, Моника Хеттерле, Густав Кернер, Армин Маревски
Описание: Гротескный портрет идеальной немецкой семьи
Обычное утро выходного дня в среднестатистической немецкой семье. Брат и сестра Карин и Саймон приехали навестить родителей и младшую сестру Клару. Вечером к ним на ужин должны заехать и другие родственники. Кто-то отправляется в магазин за покупками и по дороге забирает на машине бабушку, кто-то готовит на кухне, кто-то бездельничает и не хочет вылезать из постели. Под ногами у членов семьи крутятся домашние питомцы: большой черный пес и рыжая кошка. Однако в движениях героев прослеживается странная механистичность, их разговоры друг с другом сухи и скупы, а искренние чувства заменяет тотальная отчужденность…
Доп. информация: http://www.kinopoisk.ru/film/730752/
http://www.imdb.com/title/tt2586000/
Сэмпл: http://multi-up.com/1031101
Качество видео: DVDRip-AVC
Формат видео: MKV
Видео: MPEG4 Video (H264) 652x572 (238:143) 25fps [V: h264 high L4.1, yuv420p, 652x572 [default]]
Аудио: AC3 48000Hz stereo 192kbps [A: ac3, 48000 Hz, stereo, 192 kb/s [default]]
Формат субтитров: softsub (SRT)

Награды и фестивали

Участник программы «Форум» Берлинского кинофестиваля
Участник международных кинофестивалей в Торонто, Вене, Ванкувере и Загребе

Фрагмент субтитров

346
00:31:07,800 --> 00:31:09,245
Я был на вечеринке
по случаю дня рождения.
347
00:31:10,520 --> 00:31:12,488
Это было , на балконе.
348
00:31:13,640 --> 00:31:16,325
И там была пьяная женщина.
Она плакала.
349
00:31:18,360 --> 00:31:19,441
!
350
00:31:20,280 --> 00:31:21,691
Ты можешь посмотреть, кто там?
351
00:31:28,280 --> 00:31:29,281
Алло.
352
00:31:30,680 --> 00:31:33,047
Это Ханна.
- Спроси у неё, что ей надо.
353
00:32:00,840 --> 00:32:02,490
И лишь иногда она
открывала свои глаза,
354
00:32:02,840 --> 00:32:05,844
смотрела на кого-нибудь
и настаивала, что она не плачет.
355
00:32:09,880 --> 00:32:13,521
Внезапно, кто-то внутри,
бросил что-то на гриль
356
00:32:14,840 --> 00:32:17,650
Пьяная женщина
подпрыгнула и закричала.
357
00:32:18,480 --> 00:32:20,369
Вокруг летал пепел.
358
00:32:22,200 --> 00:32:25,921
Она просто стояла
в углу веранды, улыбаясь.

MediaInfo

Format : Matroska
Format version : Version 4 / Version 2
File size : 1.06 GiB
Duration : 1h 9mn
Overall bit rate : 2 200 Kbps
Encoded date : UTC 2014-08-25 19:26:10
Writing application : mkvmerge v7.1.0 ('Good Love') 64bit built on Jul 27 2014 13:06:55
Writing library : libebml v1.3.0 + libmatroska v1.4.1
_STATISTICS_WRITING_APP : mkvmerge v7.1.0 ('Good Love') 64bit built on Jul 27 2014 13:06:55
_STATISTICS_WRITING_DATE_UTC : 2014-08-25 19:26:10
_STATISTICS_TAGS : BPS DURATION NUMBER_OF_FRAMES NUMBER_OF_BYTES
DURATION : 01:07:47.478000000
NUMBER_OF_FRAMES : 655
NUMBER_OF_BYTES : 590384
Video
ID : 1
Format : AVC
Format/Info : Advanced Video Codec
Format profile : High@L4.1
Format settings, CABAC : Yes
Format settings, ReFrames : 8 frames
Codec ID : V_MPEG4/ISO/AVC
Duration : 1h 9mn
Bit rate : 2 000 Kbps
Width : 652 pixels
Height : 572 pixels
Display aspect ratio : 1.664
Frame rate mode : Constant
Frame rate : 25.000 fps
Color space : YUV
Chroma subsampling : 4:2:0
Bit depth : 8 bits
Scan type : Progressive
Bits/(Pixel*Frame) : 0.215
Stream size : 972 MiB (89%)
Writing library : x264 core 142 r2453 ea0ca51
Encoding settings : cabac=1 / ref=8 / deblock=1:0:0 / analyse=0x3:0x133 / me=umh / subme=9 / psy=1 / psy_rd=1.00:0.15 / mixed_ref=1 / me_range=16 / chroma_me=1 / trellis=2 / 8x8dct=1 / cqm=0 / deadzone=21,11 / fast_pskip=1 / chroma_qp_offset=-3 / threads=12 / lookahead_threads=1 / sliced_threads=0 / nr=0 / decimate=0 / interlaced=0 / bluray_compat=0 / constrained_intra=0 / bframes=3 / b_pyramid=2 / b_adapt=2 / b_bias=0 / direct=3 / weightb=1 / open_gop=0 / weightp=2 / keyint=250 / keyint_min=25 / scenecut=40 / intra_refresh=0 / rc_lookahead=60 / rc=2pass / mbtree=1 / bitrate=2000 / ratetol=3.0 / qcomp=0.60 / qpmin=0 / qpmax=69 / qpstep=4 / cplxblur=20.0 / qblur=0.5 / vbv_maxrate=62500 / vbv_bufsize=78125 / nal_hrd=none / filler=0 / ip_ratio=1.40 / aq=1:1.00
Default : Yes
Forced : No
Audio
ID : 2
Format : AC-3
Format/Info : Audio Coding 3
Mode extension : CM (complete main)
Format settings, Endianness : Big
Codec ID : A_AC3
Duration : 1h 9mn
Bit rate mode : Constant
Bit rate : 192 Kbps
Channel(s) : 2 channels
Channel positions : Front: L R
Sampling rate : 48.0 KHz
Bit depth : 16 bits
Compression mode : Lossy
Stream size : 95.0 MiB (9%)
Default : Yes
Forced : No
Text #1
ID : 3
Format : VobSub
Muxing mode : zlib
Codec ID : S_VOBSUB
Codec ID/Info : The same subtitle format used on DVDs
Language : German
Default : Yes
Forced : No
Text #2
ID : 4
Format : VobSub
Muxing mode : zlib
Codec ID : S_VOBSUB
Codec ID/Info : The same subtitle format used on DVDs
Language : English
Default : No
Forced : No
Text #3
ID : 5
Format : VobSub
Muxing mode : zlib
Codec ID : S_VOBSUB
Codec ID/Info : The same subtitle format used on DVDs
Language : French
Default : No
Forced : No
Text #4
ID : 6
Format : VobSub
Muxing mode : zlib
Codec ID : S_VOBSUB
Codec ID/Info : The same subtitle format used on DVDs
Language : Spanish
Default : No
Forced : No
Text #5
ID : 7
Format : VobSub
Muxing mode : zlib
Codec ID : S_VOBSUB
Codec ID/Info : The same subtitle format used on DVDs
Language : Portuguese
Default : No
Forced : No

Скриншот c названием фильма

[teatrix.ru].t6009.torrent 
Торрент: Зарегистрирован [ 2015-10-10 09:49 ] · 624256E32201745D58B21F5790454CC1B0E71088

Скачать .torrent

Скачать

11 KB

Статус: проверено
Скачан: 0 раз
Размер: 1.06 GB
terms.php



Быстрый ответ

Имя:

      
Для отправки сообщений необходимо включить JavaScript
Показать сообщения:    

Текущее время: 11-Дек 16:51

Часовой пояс: UTC + 3


Вы можете начинать темы
Вы можете отвечать на сообщения
Вы не можете редактировать свои сообщения
Вы не можете удалять свои сообщения
Вы не можете голосовать в опросах
Вы не можете прикреплять файлы к сообщениям
Вы можете скачивать файлы