Репетиция оркестра / Prova d'orchestra / Orchestra Rehearsal (Федерико Феллини / Federico Fellini) [1978, Италия, Франция, Германия (ФРГ), комедия, драма, музыкальный, SATRip] MVO


Статистика раздачи [Обновить пиров]
Размер:  734 MB   |    Зарегистрирован:  1 год 1 месяц   |    Скачан:  0 раз

Полного источника не было: Никогда

 
   
 
 
 

[Цитировать]

Репетиция оркестра / Prova d'orchestra
ПОСВЯЩАЕТСЯ 95 ЛЕТИЮ СО ДНЯ РОЖДЕНИЯ
ВЕЛИКОГО МАЭСТРО ФЕДЕРИКО ФЕЛЛИНИ

Жанр: Комедия, драма, музыкальный
Страна: Италия, Франция, ФРГ
Студия: Albatros Filmproduktion, Daimo Cinematografica, Radiotelevisione Italiana (RAI)
Год выпуска: 1978
Продолжительность: 01:09:24.399 (104110 frames)
Перевод: Профессиональный (многоголосый закадровый) - группа «Союза работников дубляжа»
Cубтитры: нет
Оригинальная аудиодорожка: нет
Режиссер: Федерико Феллини / Federico Fellini
В ролях:
Бальдуин Баас / Balduin Baas ... Conductor
Клара Колозимо / Clara Colosimo ... Harp player
Элизабет Лаби / Elizabeth Labi ... Piano player
Рональдо Бонакки / Ronaldo Bonacchi ... Bassoon player
Фердинандо Виллелла / Ferdinando Villella ... Cello player
Франко Явароне / Franco Iavarone ... Bass tuba player
Дэвид Монселл / David Maunsell ... First violin
Франческо Алуиджи / Francesco Aluigi ... Second violin
Энди Миллер / Andy Miller ... Oboe player
Сибил Мостерт / Sibyl Mostert ... Flute player
Франко Мацциери / Franco Mazzieri ... Trumpet player
Даниэле Пагани / Daniele Pagani ... Trombone player
и другие
Описание: Начинается репетиция, в ходе которой дирижер пытается превратить музыкантов в послушных марионеток. В ответ оркестр фактически устраивает антидирижерскую революцию. Кто-то пытается заменить руководителя метрономом, кое-кто увлечен радиорепортажем футбольного матча, арфистка дает интервью, а ее коллеги предаются любовным утехам под роялем. В стенах появляются трещины, и в помещение влетает чугунный шар для сноса зданий...
Доп. информация:
Автор рипа: pmv
Большое спасибо за:
- Исходник DVB с ТК «Россия-Культура» от Cheef mate
IMDb = 7,3/10 from 2 503 users - http://www.imdb.com/title/tt0079759/
Кинопоиск = 7.993 (2202) - http://www.kinopoisk.ru/film/39859
* Озвучивание выполнено группой «Союза работников дубляжа» по заказу ВТРК.
ПРОСЬБА к СКАЧАВШИМ. НЕ УХОДИТЕ С РАЗДАЧИ, ПОМОГИТЕ ДРУГИМ СКАЧАТЬ!!!
Качество видео: SATRip
Формат видео: AVI
Видео: 720x416 (1.73:1), 25 fps, XviD build 73 ~1341 kbps avg, 0.18 bit/pixel
Аудио: 48 kHz, MPEG Layer 3, 2 ch, ~128.00 kbps avg

MediaInfo

General
Complete name : D:\torrents\prova do orchestra (1978).avi
Format : AVI
Format/Info : Audio Video Interleave
File size : 734 MiB
Duration : 1h 9mn
Overall bit rate : 1 479 Kbps
Writing application : VirtualDubMod 1.5.10.3 | www.virtualdub-fr.org || (build 2550/release)
Writing library : VirtualDubMod build 2550/release
Video
ID : 0
Format : MPEG-4 Visual
Format profile : Advanced Simple@L5
Format settings, BVOP : Yes
Format settings, QPel : No
Format settings, GMC : No warppoints
Format settings, Matrix : Default (H.263)
Codec ID : XVID
Codec ID/Hint : XviD
Duration : 1h 9mn
Bit rate : 1 342 Kbps
Width : 720 pixels
Height : 416 pixels
Display aspect ratio : 16:9
Frame rate : 25.000 fps
Resolution : 8 bits
Colorimetry : 4:2:0
Scan type : Progressive
Bits/(Pixel*Frame) : 0.179
Stream size : 666 MiB (91%)
Writing library : XviD 73
Audio
ID : 1
Format : MPEG Audio
Format version : Version 1
Format profile : Layer 3
Format_Settings_Mode : Joint stereo
Codec ID : 55
Codec ID/Hint : MP3
Duration : 1h 9mn
Bit rate mode : Constant
Bit rate : 128 Kbps
Channel(s) : 2 channels
Sampling rate : 48.0 KHz
Stream size : 63.5 MiB (9%)
Alignment : Split accross interleaves
Interleave, duration : 40 ms (1.00 video frame)
Interleave, preload duration : 500 ms

Скриншот c названием фильма

[teatrix.ru].t6010.torrent 
Торрент: Зарегистрирован [ 2015-10-10 09:49 ] · 5F8A2B8C40CDC9DB69BEB8FCC60DEF596B6E4A56

Скачать .torrent

Скачать

15 KB

Статус: проверено
Скачан: 0 раз
Размер: 734 MB
terms.php



Быстрый ответ

Имя:

      
Для отправки сообщений необходимо включить JavaScript
Показать сообщения:    

Текущее время: 08-Дек 17:23

Часовой пояс: UTC + 3


Вы можете начинать темы
Вы можете отвечать на сообщения
Вы не можете редактировать свои сообщения
Вы не можете удалять свои сообщения
Вы не можете голосовать в опросах
Вы не можете прикреплять файлы к сообщениям
Вы можете скачивать файлы