Убийство китайского букмекера / The Killing of a Chinese Bookie (Джон Кассаветис / John Cassavetes) [1976, США, драма, криминал, BDRip-AVC] [Criterion Collection] MVO + AVO (Кузнецов) + Sub Eng + Original Eng


 

[Цитировать]

-Убийство китайского букмекера / The Killing of a Chinese Bookie Страна: США
Жанр: драма, криминал
Год выпуска: 1976
Продолжительность: 01:48:55-Перевод: Профессиональный (многоголосый закадровый)
Перевод: Авторский (одноголосый закадровый) |С.Кузнецов|
Cубтитры: английские
Оригинальная аудиодорожка: английский-Режиссер: Джон Кассаветис / John Cassavetes-В ролях-Бен Газзара, Азизи Джохари, Миде Робертс, Донна Гордон, Эдди Шоу, Джин Дарси, Тимоти Кэри, Сеймур Кассель, Морган Вудворд, Джон Каллерс, Аль Рубан, Элизабет Диринг, Хаджи, Джек Экерман, Дэвид Роулэндс, Бен Марино, Винсент Барби, Вэл Эвери, Джон Финнегэн, Джейсон Кинкейд, Фрэнк Томас, Джек Крупник-Описание-Обаятельный и одинокий фат Козмо Вителли, празднуя выплату последнего взноса за свое кабаре, заменяющее ему дом родной, не замечает, как проигрывается до нитки, задолжав $23000 очень серьезным людям. Долг можно погасить, если убить некоего китайского букмекера. Козмо сомневается, но, наконец, решившись, ввязывается в еще более неприятную историю…-Качество видео: BDRip
Исходное видео: Blu-ray Remux-Контейнер: MKV-Видео: AVC, 1126х610 (1,85:1), ~4500 kbps, 23.976 fps,
Аудио: AC-3, 256 kbps, Dolby Digital, 2 (L,R) ch, 48 KHz |MVO|
Аудио: AC-3, 192 kbps, Dolby Digital, 2 (L,R) ch, 48 KHz |AVO|
Аудио: AC-3, 224 kbps, Dolby Digital, 1/0 ch, 48 KHz |оригинал|
Формат субтитров: softsub (SRT)--

MediaInfox264

VIDEO ENCODING
------------------------------
Encoding video to: F:\Temp\0009.264
x264 Q19.8 1126x610 23.976fps (156686 frames)
avs4x264.exe: -L x264_64.exe --crf 19.8 --preset veryslow --profile high --level 4.1 --ref 11 --aq-mode 3 --aq-strength 0.85 --deblock -3:-3 --merange 48 --bframes 16 --b-pyramid strict --psy-rd 0.95:0.00 --threads 3 --subme 11 --no-mbtree --keyint 240 --slices 4 --colorprim bt709 --transfer bt709 --colormatrix bt709 --vbv-bufsize 50000 --vbv-maxrate 62500 --partitions p8x8,b8x8,i4x4,i8x8 --zones 154320,156687,q=30 --sar 1:1 --output "F:\Temp\0009.264" "F:\Temp\0009.avs"
raw [info]: 1126x610p 1:1 @ 24000/1001 fps (cfr)
x264 [info]: using SAR=1/1
x264 [info]: using cpu capabilities: MMX2 SSE2Fast LZCNT
x264 [info]: profile High, level 4.1
x264 [info]: frame I:759 Avg QP:17.78 size: 66380
x264 [info]: frame P:28429 Avg QP:19.03 size: 37941
x264 [info]: frame B:127498 Avg QP:21.57 size: 20735
x264 [info]: consecutive B-frames: 0.7% 0.8% 4.1% 9.0% 11.2% 61.9% 3.5% 1.3% 1.0% 1.3% 1.2% 2.9% 0.4% 0.2% 0.2% 0.1% 0.1%
x264 [info]: mb I I16..4: 4.4% 88.3% 7.2%
x264 [info]: mb P I16..4: 0.5% 17.8% 0.9% P16..4: 29.4% 38.0% 10.5% 0.0% 0.0% skip: 2.8%
x264 [info]: mb B I16..4: 0.1% 2.8% 0.1% B16..8: 41.9% 23.0% 3.9% direct: 7.9% skip:20.4% L0:47.5% L1:46.1% BI: 6.4%
x264 [info]: 8x8 transform intra:92.8% inter:71.8%
x264 [info]: direct mvs spatial:100.0% temporal:0.0%
x264 [info]: coded y,uvDC,uvAC intra: 91.8% 86.2% 50.4% inter: 43.1% 40.5% 3.8%
x264 [info]: i16 v,h,dc,p: 34% 18% 10% 37%
x264 [info]: i8 v,h,dc,ddl,ddr,vr,hd,vl,hu: 8% 7% 9% 11% 14% 13% 12% 11% 13%
x264 [info]: i4 v,h,dc,ddl,ddr,vr,hd,vl,hu: 32% 6% 7% 7% 11% 12% 9% 9% 8%
x264 [info]: i8c dc,h,v,p: 39% 25% 18% 18%
x264 [info]: Weighted P-Frames: Y:9.3% UV:4.7%
x264 [info]: ref P L0: 43.8% 8.4% 16.4% 8.5% 6.4% 5.1% 4.2% 2.6% 2.3% 2.1% 0.2% 0.0%
x264 [info]: ref B L0: 64.3% 13.4% 8.1% 4.1% 3.2% 2.6% 2.1% 1.3% 0.8%
x264 [info]: ref B L1: 88.6% 11.4%
Формат : Matroska
Версия формата : Version 4 / Version 2
Размер файла : 4,03 Гбайт
Продолжительность : 1 ч. 48 м.
Общий поток : 5293 Кбит/сек
Название фильма : Убийство китайского букмекера / The Killing of a Chinese Bookie [1978 Cut]___(RG.Torrents.Ru)
Дата кодирования : UTC 2015-02-03 10:06:41
Программа кодирования : mkvmerge v7.5.0 ('Glass Culture') 32bit built on Jan 10 2015 09:41:31
Библиотека кодирования : libebml v1.3.1 + libmatroska v1.4.2
DURATION : 01:48:55.168000000
NUMBER_OF_FRAMES : 204224
NUMBER_OF_BYTES : 182984704
_STATISTICS_WRITING_APP : mkvmerge v7.5.0 ('Glass Culture') 32bit built on Jan 10 2015 09:41:31
_STATISTICS_WRITING_DATE_UTC : 2015-02-03 10:06:41
_STATISTICS_TAGS : BPS DURATION NUMBER_OF_FRAMES NUMBER_OF_BYTES
Видео
Идентификатор : 1
Формат : AVC
Формат/Информация : Advanced Video Codec
Профиль формата : High@L4.1
Параметр CABAC формата : Да
Параметр ReFrames формата : 10 кадров
Идентификатор кодека : V_MPEG4/ISO/AVC
Продолжительность : 1 ч. 48 м.
Битрейт : 4516 Кбит/сек
Ширина : 1126 пикселей
Высота : 610 пикселей
Соотношение сторон : 1,85:1
Частота кадров : 23,976 кадра/сек
Цветовое пространство : YUV
Субдискретизация насыщенности : 4:2:0
Битовая глубина : 8 бит
Тип развёртки : Прогрессивная
Бит/(Пиксели*Кадры) : 0.274
Размер потока : 3,44 Гбайт (85%)
Заголовок : The.Killing.Chinese.Bookie_1976_BDRip_cw
Библиотека кодирования : x264 core 144 r2525 40bb568
Настройки программы : cabac=1 / ref=11 / deblock=1:-3:-3 / analyse=0x3:0x113 / me=umh / subme=11 / psy=1 / psy_rd=0.95:0.00 / mixed_ref=1 / me_range=48 / chroma_me=1 / trellis=2 / 8x8dct=1 / cqm=0 / deadzone=21,11 / fast_pskip=1 / chroma_qp_offset=-2 / threads=3 / lookahead_threads=1 / sliced_threads=0 / slices=4 / nr=0 / decimate=1 / interlaced=0 / bluray_compat=0 / constrained_intra=0 / bframes=16 / b_pyramid=1 / b_adapt=2 / b_bias=0 / direct=3 / weightb=1 / open_gop=0 / weightp=2 / keyint=240 / keyint_min=23 / scenecut=40 / intra_refresh=0 / rc_lookahead=60 / rc=crf / mbtree=0 / crf=19.8 / qcomp=0.60 / qpmin=0 / qpmax=69 / qpstep=4 / vbv_maxrate=62500 / vbv_bufsize=50000 / crf_max=0.0 / nal_hrd=none / filler=0 / ip_ratio=1.40 / pb_ratio=1.30 / aq=3:0.85 / zones=154320,156687,q=30
Язык : English
Default : Да
Forced : Нет
Основные цвета : BT.709-5, BT.1361, IEC 61966-2-4, SMPTE RP177
Характеристики трансфера : BT.709-5, BT.1361
Коэффициенты матрицы : BT.709-5, BT.1361, IEC 61966-2-4 709, SMPTE RP177
Аудио #1
Идентификатор : 2
Формат : AC-3
Формат/Информация : Audio Coding 3
Расширение режима : CM (complete main)
Параметр Endianness формата : Big
Идентификатор кодека : A_AC3
Продолжительность : 1 ч. 48 м.
Вид битрейта : Постоянный
Битрейт : 256 Кбит/сек
Каналы : 2 канала
Расположение каналов : Front: L R
Частота : 48,0 КГц
Битовая глубина : 16 бит
Метод сжатия : С потерями
Размер потока : 199 Мбайт (5%)
Заголовок : MVO
Язык : Russian
Default : Да
Forced : Нет
Аудио #2
Идентификатор : 3
Формат : AC-3
Формат/Информация : Audio Coding 3
Расширение режима : CM (complete main)
Параметр Endianness формата : Big
Идентификатор кодека : A_AC3
Продолжительность : 1 ч. 48 м.
Вид битрейта : Постоянный
Битрейт : 192 Кбит/сек
Каналы : 2 канала
Расположение каналов : Front: L R
Частота : 48,0 КГц
Битовая глубина : 16 бит
Метод сжатия : С потерями
Размер потока : 150 Мбайт (4%)
Заголовок : AVO_Кузнецов
Язык : Russian
Default : Нет
Forced : Нет
Аудио #3
Идентификатор : 4
Формат : AC-3
Формат/Информация : Audio Coding 3
Расширение режима : CM (complete main)
Параметр Endianness формата : Big
Идентификатор кодека : A_AC3
Продолжительность : 1 ч. 48 м.
Вид битрейта : Постоянный
Битрейт : 224 Кбит/сек
Каналы : 1 канал
Расположение каналов : Front: C
Частота : 48,0 КГц
Битовая глубина : 16 бит
Метод сжатия : С потерями
Размер потока : 175 Мбайт (4%)
Язык : English
Default : Нет
Forced : Нет
Текст
Идентификатор : 5
Формат : UTF-8
Идентификатор кодека : S_TEXT/UTF8
Идентификатор кодека/Информация : UTF-8 Plain Text
Язык : English
Default : Да
Forced : Нет
Меню
00:00:00.000 : :Chapter 01
00:04:55.920 : :Chapter 02
00:08:09.655 : :Chapter 03
00:12:21.657 : :Chapter 04
00:24:03.066 : :Chapter 05
00:30:36.167 : :Chapter 06
00:36:37.737 : :Chapter 07
00:45:34.106 : :Chapter 08
00:51:23.872 : :Chapter 09
00:57:42.834 : :Chapter 10
01:05:06.277 : :Chapter 11
01:11:55.894 : :Chapter 12
01:16:44.266 : :Chapter 13
01:26:49.579 : :Chapter 14
01:33:25.308 : :Chapter 15
01:40:14.842 : :Chapter 16
01:48:54.903 : :Chapter 17
Скриншоты

Сравнение с исходником


Рип-- БД
ДополнительноDVO "Культура" AC3 DD 2 (L,R) ch 160 kbps 48 KHz Скачать



Показать сообщения:    

Текущее время: 04-Дек 02:53

Часовой пояс: UTC + 3


Вы не можете начинать темы
Вы не можете отвечать на сообщения
Вы не можете редактировать свои сообщения
Вы не можете удалять свои сообщения
Вы не можете голосовать в опросах
Вы не можете прикреплять файлы к сообщениям
Вы не можете скачивать файлы