Потоки любви / Love Streams (Джон Кассаветес / John Cassavetes) [1984, США, драма, комедия, BDRip-AVC] DVO (НТВ+) + MVO (ТВ Центр) + Original (Eng) + Subs (Eng)


 

[Цитировать]

Потоки любви / Love Streams- Страна: США
Жанр: драма, комедия
Год выпуска: 1984
Продолжительность: 02:21:16-Перевод №1: Профессиональный (двухголосый закадровый) - НТВ+
Перевод №2: Профессиональный (многоголосый закадровый) - ТВ Центр
Оригинальная аудиодорожка: English
Cубтитры: English (full)
Навигация по главам: присутствует - 24 главы-Режиссер: Джон Кассаветес / John Cassavetes
В ролях: Джина Роулэндс, Джон Кассаветис, Дайэнн Эбботт, Сеймур Кэссел, Маргарет Эбботт, Джейкоб Шо-Описание: Роберт Хармон, успешный автор эротических романов живет вместе с двенадцатилетним сыном в большом доме, окруженный толпой случайных любовниц, без конца курит сигареты и не расстается с бутылкой. Когда он остается один, его навещает любимая сестра Сара. Она находится на грани нервного срыва из-за того, что ее дочь после развода предпочла жить со своим отцом.
Запертые в огромном доме, брат и сестра проводят целые дни наедине друг с другом, болтая о вещах важных и не слишком, о том, что их волнует и о том, что волновать уже не будет. В один из дней Сара решает уехать, оставив Роберта наедине с самим собой.-
Download sample-Качество видео: BDRip-AVC | исх. BDRemux 1080p - thx: Core_soul
Формат: MKV-Видео: 1 132x612 (1.85:1), 23.976 fps, H.264 ~4435 kbps avg, 0.261 bit/pixel
Аудио №1: 48.0 kHz, AC3 Dolby Digital, 2/0 (L,R) ch, ~192 kbps | Профессиональный (двухголосый закадровый) - НТВ+
Аудио №2: 48.0 kHz, AC3 Dolby Digital, 2/0 (L,R) ch, ~160 kbps | Профессиональный (многоголосый закадровый) - ТВ Центр
Аудио №3: 48.0 kHz, AC3 Dolby Digital, 1/0 (C) ch, ~96.00 kbps avg | English-

MediaInfo

General
Unique ID : 196089447549389901354360773589044504899 (0x9385743191D1214C873939F3E1BF2943)
Complete name : D:\Фильмы\Рипы\Love Streams.1984.BDRip-AVC.eFK tRuAVC.mkv
Format : Matroska
Format version : Version 4 / Version 2
File size : 4.82 GiB
Duration : 2h 21mn
Overall bit rate : 4 886 Kbps
Movie name : Потоки любви / Love Streams (1984)
Encoded date : UTC 2015-02-03 09:01:16
Writing application : mkvmerge v7.2.0 ('On Every Street') 64bit built on Sep 13 2014 15:52:10
Writing library : libebml v1.3.0 + libmatroska v1.4.1
DURATION : 02:21:15.776000000
NUMBER_OF_FRAMES : 264868
NUMBER_OF_BYTES : 101709312
_STATISTICS_WRITING_APP : mkvmerge v7.2.0 ('On Every Street') 64bit built on Sep 13 2014 15:52:10
_STATISTICS_WRITING_DATE_UTC : 2015-02-03 09:01:16
_STATISTICS_TAGS : BPS DURATION NUMBER_OF_FRAMES NUMBER_OF_BYTES
Attachment : Yes
Video
ID : 1
Format : AVC
Format/Info : Advanced Video Codec
Format profile : High@L4.1
Format settings, CABAC : Yes
Format settings, ReFrames : 10 frames
Codec ID : V_MPEG4/ISO/AVC
Duration : 2h 21mn
Bit rate : 4 340 Kbps
Width : 1 132 pixels
Height : 612 pixels
Display aspect ratio : 1.85:1
Frame rate mode : Constant
Frame rate : 23.976 fps
Color space : YUV
Chroma subsampling : 4:2:0
Bit depth : 8 bits
Scan type : Progressive
Bits/(Pixel*Frame) : 0.261
Stream size : 4.28 GiB (89%)
Title : eFK tRuAVC
Writing library : x264 core 144 r2525kMod 40bb568
Encoding settings : cabac=1 / ref=10 / deblock=1:-2:-2 / analyse=0x3:0x133 / me=umh / subme=11 / psy=1 / fade_compensate=0.00 / psy_rd=1.15:0.05 / mixed_ref=1 / me_range=48 / chroma_me=1 / trellis=2 / 8x8dct=1 / cqm=0 / deadzone=21,11 / fast_pskip=0 / chroma_qp_offset=-3 / threads=12 / lookahead_threads=3 / sliced_threads=0 / nr=0 / decimate=1 / interlaced=0 / bluray_compat=0 / constrained_intra=0 / fgo=0 / bframes=16 / b_pyramid=2 / b_adapt=2 / b_bias=0 / direct=3 / weightb=1 / open_gop=0 / weightp=2 / keyint=250 / keyint_min=23 / scenecut=40 / intra_refresh=0 / rc_lookahead=60 / rc=crf / mbtree=0 / crf=21.3000 / qcomp=0.65 / qpmin=0 / qpmax=69 / qpstep=4 / vbv_maxrate=50000 / vbv_bufsize=62500 / crf_max=0.0 / nal_hrd=none / filler=0 / ip_ratio=1.25 / pb_ratio=1.15 / aq=3:0.75
Language : English
Default : Yes
Forced : No
Color primaries : BT.709
Transfer characteristics : BT.709
Matrix coefficients : BT.709
DURATION : 02:21:15.801000000
NUMBER_OF_FRAMES : 203216
NUMBER_OF_BYTES : 4698941139
_STATISTICS_WRITING_APP : mkvmerge v7.2.0 ('On Every Street') 64bit built on Sep 13 2014 15:52:10
_STATISTICS_WRITING_DATE_UTC : 2015-02-03 09:01:16
_STATISTICS_TAGS : BPS DURATION NUMBER_OF_FRAMES NUMBER_OF_BYTES
Audio #1
ID : 2
Format : AC-3
Format/Info : Audio Coding 3
Mode extension : CM (complete main)
Format settings, Endianness : Big
Codec ID : A_AC3
Duration : 2h 21mn
Bit rate mode : Constant
Bit rate : 192 Kbps
Channel count : 2 channels
Channel positions : Front: L R
Sampling rate : 48.0 KHz
Bit depth : 16 bits
Compression mode : Lossy
Stream size : 194 MiB (4%)
Title : DVO (НТВ+)
Language : Russian
Default : Yes
Forced : No
Audio #2
ID : 3
Format : AC-3
Format/Info : Audio Coding 3
Mode extension : CM (complete main)
Format settings, Endianness : Big
Codec ID : A_AC3
Duration : 2h 21mn
Bit rate mode : Constant
Bit rate : 160 Kbps
Channel count : 2 channels
Channel positions : Front: L R
Sampling rate : 48.0 KHz
Bit depth : 16 bits
Compression mode : Lossy
Stream size : 162 MiB (3%)
Title : MVO (ТВ Центр)
Language : Russian
Default : No
Forced : No
Audio #3
ID : 4
Format : AC-3
Format/Info : Audio Coding 3
Mode extension : CM (complete main)
Format settings, Endianness : Big
Codec ID : A_AC3
Duration : 2h 21mn
Bit rate mode : Constant
Bit rate : 96.0 Kbps
Channel count : 1 channel
Channel positions : Front: C
Sampling rate : 48.0 KHz
Bit depth : 16 bits
Compression mode : Lossy
Stream size : 97.0 MiB (2%)
Language : English
Default : No
Forced : No
Text
ID : 5
Format : UTF-8
Codec ID : S_TEXT/UTF8
Codec ID/Info : UTF-8 Plain Text
Title : full
Language : English
Default : No
Forced : No
Menu
00:00:00.000 : :1
00:06:35.895 : :2
00:08:42.939 : :3
00:15:47.029 : :4
00:19:55.694 : :5
00:27:22.057 : :6
00:31:08.658 : :7
00:38:40.109 : :8
00:46:49.640 : :9
01:02:41.299 : :10
01:08:47.998 : :11
01:12:37.436 : :12
01:19:36.897 : :13
01:23:37.012 : :14
01:27:42.632 : :15
01:32:24.872 : :16
01:37:06.779 : :17
01:41:15.069 : :18
01:45:32.409 : :19
01:52:55.810 : :20
01:57:07.270 : :21
02:01:29.198 : :22
02:08:52.683 : :23
02:14:04.661 : :24

x264 log

x264 [info]: frame I:935 Avg QP:20.08 size: 79917
x264 [info]: frame P:36597 Avg QP:21.33 size: 32282
x264 [info]: frame B:165684 Avg QP:22.40 size: 20779
x264 [info]: consecutive B-frames: 0.9% 0.8% 3.8% 4.8% 8.9% 69.7% 4.0% 0.9% 1.6% 0.8% 1.1% 1.7% 0.4% 0.2% 0.2% 0.1% 0.1%
x264 [info]: mb I I16..4: 3.2% 87.1% 9.8%
x264 [info]: mb P I16..4: 0.1% 6.6% 0.6% P16..4: 32.9% 41.9% 14.5% 1.3% 0.0% skip: 1.9%
x264 [info]: mb B I16..4: 0.0% 2.2% 0.1% B16..8: 44.5% 21.7% 4.1% direct: 8.2% skip:19.2% L0:48.1% L1:47.7% BI: 4.2%
x264 [info]: 8x8 transform intra:92.5% inter:62.1%
x264 [info]: direct mvs spatial:100.0% temporal:0.0%
x264 [info]: coded y,uvDC,uvAC intra: 96.7% 86.7% 59.9% inter: 43.7% 30.0% 3.8%
x264 [info]: i16 v,h,dc,p: 30% 16% 5% 49%
x264 [info]: i8 v,h,dc,ddl,ddr,vr,hd,vl,hu: 9% 5% 8% 12% 15% 14% 14% 11% 11%
x264 [info]: i4 v,h,dc,ddl,ddr,vr,hd,vl,hu: 29% 5% 3% 8% 13% 13% 12% 10% 9%
x264 [info]: i8c dc,h,v,p: 45% 22% 17% 16%
x264 [info]: Weighted P-Frames: Y:6.1% UV:3.2%
x264 [info]: ref P L0: 38.4% 9.6% 18.3% 7.7% 6.9% 5.4% 5.2% 2.8% 2.8% 2.6% 0.3% 0.0%
x264 [info]: ref B L0: 56.8% 14.8% 9.7% 5.4% 4.4% 3.8% 3.3% 1.3% 0.5%
x264 [info]: ref B L1: 88.4% 11.6%
x264 [info]: kb/s:4435.16
x264 [total]: encoded 203216 frames, 6.37 fps, 4435.16 kb/s, duration 8:51:57.76

Comparison

Source

Encode



Показать сообщения:    

Текущее время: 05-Дек 05:24

Часовой пояс: UTC + 3


Вы не можете начинать темы
Вы не можете отвечать на сообщения
Вы не можете редактировать свои сообщения
Вы не можете удалять свои сообщения
Вы не можете голосовать в опросах
Вы не можете прикреплять файлы к сообщениям
Вы не можете скачивать файлы