Чудеса / Le meraviglie (Аличе Рорвахер / Alice Rohrwacher) [2014, Италия, Швейцария, Германия, Драма, DVDRip] VO (PashaUp)


Статистика раздачи [Обновить пиров]
Размер:  1.46 GB   |    Зарегистрирован:  1 год 1 месяц   |    Скачан:  0 раз

Полного источника не было: Никогда

 
   
 
 
 

[Цитировать]

--Чудеса / Le meraviglie- Страна: Италия, Швейцария, Германия
Жанр: Драма
Год выпуска: 2014
Продолжительность: 01:46:52-Перевод: Одноголосый закадровый PashaUp
Cубтитры: нет-Режиссер: Аличе Рорвахер / Alice Rohrwacher-В ролях: Альба Рорвахер, Мария Александра Лунгу, Сэм Ловик, Сабина Тимотео, Агнес Гразиани, Моника Беллуччи, Андре Хеннике, Луис Уилька, Ева Лея Пасе Морроу, Марис Стелла Морроу
Описание: История о четырех сестрах, старшей из которых 14, дочерях отца-деспота, которые в одно прекрасное лето обретают опыт взросления. Отец — тиран прежде всего потому, что желает уберечь дочерей от глупостей и тягот внешнего мира и использует их труд на производстве меда. Он живет иллюзией, будто семья будет существовать всегда. Но чтобы разрушить идиллию, достаточно появления среди девочек мальчика-подростка…-| Сэмпл | IMDB | КиноПоиск |-Качество видео: DVDRip
Формат видео: AVI
Видео: 720x384 (1.88:1), 25 fps, XviD build 50 ~1499 kbps avg, 0.22 bit/pixel
Аудио: 48 kHz, AC3 Dolby Digital, 3/2 (L,C,R,l,r) + LFE ch, ~448 kbps

Награды

Каннский кинофестиваль, 2014 год
Победитель: Большой приз жюри
Номинации :Золотая пальмовая ветвь

MediaInfo

Общее
Полное имя : F:\BD torrent\mytorrentsup\Le.Meraviglie.avi
Формат : AVI
Формат/Информация : Audio Video Interleave
Размер файла : 1,46 Гбайт
Продолжительность : 1 ч. 46 м.
Общий поток : 1957 Кбит/сек
Программа кодирования : VirtualDubMod 1.5.10.2 (build 2540/release)
Библиотека кодирования : VirtualDubMod build 2540/release
Видео
Идентификатор : 0
Формат : MPEG-4 Visual
Профиль формата : Advanced Simple@L5
Параметр BVOP формата : 1
Параметр QPel формата : Нет
Параметр GMC формата : Без точки перехода
Параметр матрицы формата : Default (MPEG)
Идентификатор кодека : XVID
Идентификатор кодека/Подсказка : XviD
Продолжительность : 1 ч. 46 м.
Битрейт : 1500 Кбит/сек
Ширина : 720 пикселей
Высота : 384 пикселя
Соотношение сторон : 1,85:1
Частота кадров : 25,000 кадров/сек
Цветовое пространство : YUV
Субдискретизация насыщенности : 4:2:0
Битовая глубина : 8 бит
Тип развёртки : Прогрессивная
Метод сжатия : С потерями
Бит/(Пиксели*Кадры) : 0.217
Размер потока : 1,12 Гбайт (77%)
Библиотека кодирования : XviD 1.2.1 (UTC 2008-12-04)
Аудио
Идентификатор : 1
Формат : AC-3
Формат/Информация : Audio Coding 3
Расширение режима : CM (complete main)
Параметр Endianness формата : Big
Идентификатор кодека : 2000
Продолжительность : 1 ч. 46 м.
Вид битрейта : Постоянный
Битрейт : 448 Кбит/сек
Каналы : 6 каналов
Расположение каналов : Front: L C R, Side: L R, LFE
Частота : 48,0 КГц
Битовая глубина : 16 бит
Метод сжатия : С потерями
Размер потока : 342 Мбайт (23%)
Выравнивание : Разделение по промежуткам
Продолжительность промежутка : 40 мс. (1,00 видеокадр)
Время предзагрузки промежутка : 500 мс.

Скриншот c названием фильма

Скриншоты

[teatrix.ru].t6014.torrent 
Торрент: Зарегистрирован [ 2015-10-10 09:49 ] · 2F5F2981DDB11E26EC4EF8834B585E1354D58785

Скачать .torrent

Скачать

15 KB

Статус: проверено
Скачан: 0 раз
Размер: 1.46 GB
terms.php



Быстрый ответ

Имя:

      
Для отправки сообщений необходимо включить JavaScript
Показать сообщения:    

Текущее время: 06-Дек 22:57

Часовой пояс: UTC + 3


Вы можете начинать темы
Вы можете отвечать на сообщения
Вы не можете редактировать свои сообщения
Вы не можете удалять свои сообщения
Вы не можете голосовать в опросах
Вы не можете прикреплять файлы к сообщениям
Вы можете скачивать файлы