Ничья земля / No Man's Land (Данис Танович / Danis Tanovic) [2001, Босния-Герцеговина, Франция, Словения, Италия, Великобритания, Бельгия , драма, военный, BDRip-AVC] 2x MVO (Cinema Prestige, Карусель) + Original (Bos) + Sub Rus


 

[Цитировать]

Ничья земля / No Man's Land- Страна: Босния-Герцеговина, Франция, Словения, Италия, Великобритания, Бельгия
Жанр: драма, военный
Год выпуска: 2001
Продолжительность: 01:37:26-Перевод №1: Профессиональный (многоголосый, закадровый) - Cinema Prestige
Перевод №2: Профессиональный (многоголосый закадровый) - Карусель
Оригинальная аудиодорожка: Bosnian
Cубтитры: Русские (полные)
Навигация по главам: присутствует - 10 глав-Режиссер: Данис Танович / Danis Tanovic
В ролях: Бранко Джурич, Рене Битораяц, Филип Шовагович, Жорж Сиатидис, Серж-Анри Вальке, Саша Кремер, Ален Элуа, Мустафа Надаревич, Богдан Диклич, Саймон Кэллоу-Описание: Взвод боснийских солдат заблудился в ночном тумане и к утру, к ужасу своему, обнаружил, что оказался прямо перед сербской передовой, под огнем противника.
После завязавшегося скорого, но жестокого боя, в траншее на нейтральной полосе оказались три раненых — серб и два боснийца. Один из боснийцев лежит на мине: если попытаться снять его с этой адской машины — она сработает.
Что делать заклятым врагам, оказавшимся в такой абсурдной и жуткой ситуации?-
Download sample-Качество видео: BDRip-AVС
Формат: MKV-Видео: 1 122x478 (2.35:1), 23.976 fps, H.264 ~4062 kbps avg, 0.307 bit/pixel
Аудио №1: 48.0 kHz, AC3 Dolby Digital, 3/2 (L,C,R,l,r) + LFE ch, ~448 kbps | Профессиональный (многоголосый, закадровый) - Cinema Prestige
Аудио №2: 48.0 kHz, AC3 Dolby Digital, 3/2 (L,C,R,l,r) + LFE ch, ~448 kbps | Профессиональный (многоголосый закадровый) - Карусель
Аудио №3: 48.0 kHz, AC3 Dolby Digital, 3/2 (L,C,R,l,r) + LFE ch, ~448 kbps | Bosnian-

MediaInfo

General
Unique ID : 240895774390424420761238256852341150526 (0xB53AD6AA648B3AB391BF2995B7DCD33E)
Complete name : D:\Фильмы\Рипы\No Man's Land.2001.BDRip-AVC.eFK tRuAVC.mkv
Format : Matroska
Format version : Version 4 / Version 2
File size : 3.69 GiB
Duration : 1h 37mn
Overall bit rate : 5 404 Kbps
Movie name : Ничья земля / No Man's Land (2001) - Release for rutracker
Encoded date : UTC 2015-02-02 12:15:29
Writing application : mkvmerge v7.2.0 ('On Every Street') 64bit built on Sep 13 2014 15:52:10
Writing library : libebml v1.3.0 + libmatroska v1.4.1
DURATION : 01:32:03.315000000
NUMBER_OF_FRAMES : 1209
NUMBER_OF_BYTES : 57010
_STATISTICS_WRITING_APP : mkvmerge v7.2.0 ('On Every Street') 64bit built on Sep 13 2014 15:52:10
_STATISTICS_WRITING_DATE_UTC : 2015-02-02 12:15:29
_STATISTICS_TAGS : BPS DURATION NUMBER_OF_FRAMES NUMBER_OF_BYTES
Attachment : Yes
Video
ID : 1
Format : AVC
Format/Info : Advanced Video Codec
Format profile : High@L4.1
Format settings, CABAC : Yes
Format settings, ReFrames : 14 frames
Codec ID : V_MPEG4/ISO/AVC
Duration : 1h 37mn
Bit rate : 3 953 Kbps
Width : 1 122 pixels
Height : 478 pixels
Display aspect ratio : 2.35:1
Frame rate mode : Constant
Frame rate : 23.976 fps
Color space : YUV
Chroma subsampling : 4:2:0
Bit depth : 8 bits
Scan type : Progressive
Bits/(Pixel*Frame) : 0.307
Stream size : 2.70 GiB (73%)
Title : eFK tRuAVC
Writing library : x264 core 144 r2525kMod 40bb568
Encoding settings : cabac=1 / ref=14 / deblock=1:-2:-2 / analyse=0x3:0x133 / me=umh / subme=11 / psy=1 / fade_compensate=0.00 / psy_rd=1.15:0.05 / mixed_ref=1 / me_range=48 / chroma_me=1 / trellis=2 / 8x8dct=1 / cqm=0 / deadzone=21,11 / fast_pskip=0 / chroma_qp_offset=-3 / threads=12 / lookahead_threads=3 / sliced_threads=0 / nr=0 / decimate=1 / interlaced=0 / bluray_compat=0 / constrained_intra=0 / fgo=0 / bframes=16 / b_pyramid=2 / b_adapt=2 / b_bias=0 / direct=3 / weightb=1 / open_gop=0 / weightp=2 / keyint=250 / keyint_min=23 / scenecut=40 / intra_refresh=0 / rc_lookahead=60 / rc=crf / mbtree=0 / crf=18.8000 / qcomp=0.65 / qpmin=0 / qpmax=69 / qpstep=4 / vbv_maxrate=50000 / vbv_bufsize=62500 / crf_max=0.0 / nal_hrd=none / filler=0 / ip_ratio=1.25 / pb_ratio=1.15 / aq=3:0.85
Language : Bosnian
Default : Yes
Forced : No
Color primaries : BT.709
Transfer characteristics : BT.709
Matrix coefficients : BT.709
DURATION : 01:37:47.404000000
NUMBER_OF_FRAMES : 140677
NUMBER_OF_BYTES : 2979363211
_STATISTICS_WRITING_APP : mkvmerge v7.2.0 ('On Every Street') 64bit built on Sep 13 2014 15:52:10
_STATISTICS_WRITING_DATE_UTC : 2015-02-02 12:15:29
_STATISTICS_TAGS : BPS DURATION NUMBER_OF_FRAMES NUMBER_OF_BYTES
Audio #1
ID : 2
Format : AC-3
Format/Info : Audio Coding 3
Mode extension : CM (complete main)
Format settings, Endianness : Big
Codec ID : A_AC3
Duration : 1h 37mn
Bit rate mode : Constant
Bit rate : 448 Kbps
Channel count : 6 channels
Channel positions : Front: L C R, Side: L R, LFE
Sampling rate : 48.0 KHz
Bit depth : 16 bits
Compression mode : Lossy
Stream size : 313 MiB (8%)
Title : MVO (Cinema Prestige)
Language : Russian
Default : Yes
Forced : No
Audio #2
ID : 3
Format : AC-3
Format/Info : Audio Coding 3
Mode extension : CM (complete main)
Format settings, Endianness : Big
Codec ID : A_AC3
Duration : 1h 37mn
Bit rate mode : Constant
Bit rate : 448 Kbps
Channel count : 6 channels
Channel positions : Front: L C R, Side: L R, LFE
Sampling rate : 48.0 KHz
Bit depth : 16 bits
Compression mode : Lossy
Stream size : 313 MiB (8%)
Title : MVO (Карусель)
Language : Russian
Default : No
Forced : No
Audio #3
ID : 4
Format : AC-3
Format/Info : Audio Coding 3
Mode extension : CM (complete main)
Format settings, Endianness : Big
Codec ID : A_AC3
Duration : 1h 37mn
Bit rate mode : Constant
Bit rate : 448 Kbps
Channel count : 6 channels
Channel positions : Front: L C R, Side: L R, LFE
Sampling rate : 48.0 KHz
Bit depth : 16 bits
Compression mode : Lossy
Stream size : 313 MiB (8%)
Language : Bosnian
Default : No
Forced : No
Text
ID : 5
Format : UTF-8
Codec ID : S_TEXT/UTF8
Codec ID/Info : UTF-8 Plain Text
Title : full
Language : Russian
Default : No
Forced : No
Menu
00:00:00.000 : :Chapter 01
00:10:27.417 : :Chapter 02
00:22:41.777 : :Chapter 03
00:29:58.671 : :Chapter 04
00:40:45.693 : :Chapter 05
00:49:44.773 : :Chapter 06
01:00:47.268 : :Chapter 07
01:13:20.978 : :Chapter 08
01:28:03.443 : :Chapter 09
01:37:45.774 : :Chapter 10

x264 log

x264 [info]: frame I:946 Avg QP:18.69 size: 85115
x264 [info]: frame P:26691 Avg QP:19.74 size: 33623
x264 [info]: frame B:113040 Avg QP:20.32 size: 17705
x264 [info]: consecutive B-frames: 1.5% 1.6% 4.4% 15.0% 17.2% 33.9% 9.6% 5.1% 3.2% 2.2% 1.6% 1.3% 1.0% 0.8% 0.5% 0.4% 0.6%
x264 [info]: mb I I16..4: 3.8% 82.8% 13.5%
x264 [info]: mb P I16..4: 0.2% 15.3% 1.2% P16..4: 28.9% 32.6% 15.5% 2.0% 0.2% skip: 4.1%
x264 [info]: mb B I16..4: 0.1% 3.5% 0.2% B16..8: 34.3% 22.9% 5.8% direct: 9.2% skip:24.0% L0:45.0% L1:39.2% BI:15.7%
x264 [info]: 8x8 transform intra:91.0% inter:54.3%
x264 [info]: direct mvs spatial:99.2% temporal:0.8%
x264 [info]: coded y,uvDC,uvAC intra: 96.5% 85.5% 59.3% inter: 43.5% 28.8% 3.2%
x264 [info]: i16 v,h,dc,p: 36% 27% 11% 26%
x264 [info]: i8 v,h,dc,ddl,ddr,vr,hd,vl,hu: 7% 8% 13% 11% 14% 12% 12% 11% 13%
x264 [info]: i4 v,h,dc,ddl,ddr,vr,hd,vl,hu: 6% 24% 9% 6% 12% 12% 12% 9% 11%
x264 [info]: i8c dc,h,v,p: 40% 29% 17% 15%
x264 [info]: Weighted P-Frames: Y:7.8% UV:2.8%
x264 [info]: ref P L0: 37.9% 12.9% 19.1% 6.2% 5.9% 3.8% 3.9% 1.8% 2.0% 1.4% 1.5% 1.2% 1.3% 1.1% 0.1% 0.0%
x264 [info]: ref B L0: 61.2% 14.3% 7.4% 4.2% 3.1% 2.6% 2.1% 1.3% 1.1% 1.1% 0.9% 0.5% 0.2%
x264 [info]: ref B L1: 90.1% 9.9%
x264 [info]: kb/s:4062.26
x264 [total]: encoded 140677 frames, 6.59 fps, 4062.26 kb/s, duration 5:55:51.70

Comparison

Source

Encode



Показать сообщения:    

Текущее время: 02-Дек 21:13

Часовой пояс: UTC + 3


Вы не можете начинать темы
Вы не можете отвечать на сообщения
Вы не можете редактировать свои сообщения
Вы не можете удалять свои сообщения
Вы не можете голосовать в опросах
Вы не можете прикреплять файлы к сообщениям
Вы не можете скачивать файлы