Форс-Мажор / Force-Majeure / Turist (Рубен Эстлунд / Ruben Östlund) [2014, Швеция, Франция, Норвегия, Драма, комедия, HDRip] VO (PashaUp)


 

[Цитировать]

--Форс-Мажор / Force-Majeure / Turist
Страна: Швеция, Франция, Норвегия
Жанр: Драма, комедия
Год выпуска: 2014
Продолжительность: 01:58:11-Перевод: Одноголосый закадровый PashaUp
Cубтитры: нет
Режиссер: Рубен Эстлунд / Ruben Östlund-В ролях: Клара Веттерген, Винсент Веттерген, Брэйди Корбет, Кристофер Хивью, Малин Даль
Описание: Зимний отпуск – это то время, когда правильный отец забывает о работе и посвящает себя любимой жене и любимым детям, выбрав идеальное место для идеального отдыха в идеальной стране. Утром все вместе завтракают, днем – вместе катаются на лыжах, перед сном – вместе чистят зубы. И до чего обидно, когда всего какая-то мелочь в виде непрошенной снежной лавины разрушает эту идиллическую картину: отец оказывается трусом, жена – истеричкой, да и все остальные пары вокруг начинают вызывать большие сомнения…-| Сэмпл | IMDB | КиноПоиск |-Качество видео: HDRip
Формат видео: AVI
Видео: 720x304 (2.37:1), 23.976 fps, XviD build 50 ~1309 kbps avg, 0.25 bit/pixel
Аудио: 48 kHz, AC3 Dolby Digital, 3/2 (L,C,R,l,r) + LFE ch, ~448 kbps

MediaInfo

Общее
Полное имя : F:\BD torrent\mytorrentsup\Force.Majeure.L1.HDRip.1.46.GB.avi
Формат : AVI
Формат/Информация : Audio Video Interleave
Размер файла : 1,48 Гбайт
Продолжительность : 1 ч. 59 м.
Общий поток : 1767 Кбит/сек
Программа кодирования : VirtualDubMod 1.5.10.2 (build 2540/release)
Библиотека кодирования : VirtualDubMod build 2540/release
Видео
Идентификатор : 0
Формат : MPEG-4 Visual
Профиль формата : Advanced Simple@L5
Параметр BVOP формата : 2
Параметр QPel формата : Нет
Параметр GMC формата : Без точки перехода
Параметр матрицы формата : Default (MPEG)
Идентификатор кодека : XVID
Идентификатор кодека/Подсказка : XviD
Продолжительность : 1 ч. 59 м.
Битрейт : 1310 Кбит/сек
Ширина : 720 пикселей
Высота : 304 пикселя
Соотношение сторон : 2,35:1
Частота кадров : 23,976 кадра/сек
Цветовое пространство : YUV
Субдискретизация насыщенности : 4:2:0
Битовая глубина : 8 бит
Тип развёртки : Прогрессивная
Метод сжатия : С потерями
Бит/(Пиксели*Кадры) : 0.250
Размер потока : 1,10 Гбайт (74%)
Библиотека кодирования : XviD 1.2.1 (UTC 2008-12-04)
Аудио
Идентификатор : 1
Формат : AC-3
Формат/Информация : Audio Coding 3
Расширение режима : CM (complete main)
Параметр Endianness формата : Big
Идентификатор кодека : 2000
Продолжительность : 1 ч. 59 м.
Вид битрейта : Постоянный
Битрейт : 448 Кбит/сек
Каналы : 6 каналов
Расположение каналов : Front: L C R, Side: L R, LFE
Частота : 48,0 КГц
Битовая глубина : 16 бит
Метод сжатия : С потерями
Размер потока : 384 Мбайт (25%)
Выравнивание : Разделение по промежуткам
Продолжительность промежутка : 42 мс. (1,00 видеокадр)
Время предзагрузки промежутка : 500 мс.

Скриншот c названием фильма

Скриншоты




Показать сообщения:    

Текущее время: 03-Дек 12:40

Часовой пояс: UTC + 3


Вы не можете начинать темы
Вы не можете отвечать на сообщения
Вы не можете редактировать свои сообщения
Вы не можете удалять свои сообщения
Вы не можете голосовать в опросах
Вы не можете прикреплять файлы к сообщениям
Вы не можете скачивать файлы