Оно (Сергей Овчаров) [1989, СССР, трагикомедия, бюрократический эпос, экранизация, DVB]


Статистика раздачи [Обновить пиров]
Размер:  1.93 GB   |    Зарегистрирован:  1 год 1 месяц   |    Скачан:  0 раз

Полного источника не было: Никогда

 
   
 
 
 

[Цитировать]

Оно
Страна: СССР
Жанр: трагикомедия, бюрократический эпос, экранизация
Год выпуска: 1989
Продолжительность: 01:54:53
Перевод: не требуется
Cубтитры: нет
Оригинальная аудиодорожка: русский
Режиссер: Сергей Овчаров
В ролях: Ролан Быков, Наталья Гундарева, Светлана Крючкова, Елена Санаева, Маргарита Терехова, Юрий Демич, Леонид Куравлев, Родион Нахапетов, Олег Табаков, Вячеслав Цой, Олег Штефанко, Ирина Мазуркевич, Александр Галибин, Вера Глаголева, Виктор Гоголев, Николай Муравьёв, Виктор Нестеров, Ольга Пашкова, Михаил Пахоменко, Владимир Кашпур, Александр Половцев, Виктор Казанович, Эрика Дружинина, Наталья Лабурцева, Александр Галибин, Виктор Бычков, Василий Корзун
Описание: Бюрократический эпос по диалогам и сюжетам М. Е. Салтыкова-Щедрина.
В основе сюжета — история уездного города Глупова от начала века до возможного будущего...
Доп. информация: ремукс записи потока *.ts в *.mkv программой VideoReDo.
На видео местами баннеры. На финальные титры наложена реклама-анонс (см. 2 последних скриншота). Из-за этого продолжительность на 2 минуты меньше, чем в других раздачах.
Производство: Ленфильм
Сценарист: Сергей Овчаров
Оператор: Валерий Федосов
Художник: Наталья Васильева
Сэмпл: http://multi-up.com/1030149
Качество видео: DVB
Формат видео: MKV
Видео: AVC (H264), 720x576@785x576 (4:3), анаморф, 25 fps, 2107 kbps
Аудио: MP2, 256 kbps, 2 channels, 48 kHz

MediaInfo

GeneralUnique ID : 284769608831615733774341649991716962819 (0xD63CA1B66FFDFB754AA74B4AE1460203)Complete name : D:\Work\Video\Оно\Оно (1989).mkvFormat : MatroskaFormat version : Version 2File size : 1.93 GiBDuration : 1h 54mnOverall bit rate : 2 411 KbpsWriting application : Lavf52.64.2Writing library : Lavf52.64.2
VideoID : 1Format : AVCFormat/Info : Advanced Video CodecFormat profile : Main@L3.0Format settings, CABAC : YesFormat settings, ReFrames : 4 framesFormat settings, GOP : M=4, N=24Codec ID : V_MPEG4/ISO/AVCDuration : 1h 54mnBit rate : 2 107 KbpsWidth : 720 pixelsHeight : 576 pixelsDisplay aspect ratio : 4:3Original display aspect ratio : 4:3Frame rate mode : ConstantFrame rate : 25.000 fpsStandard : PALColor space : YUVChroma subsampling : 4:2:0Bit depth : 8 bitsScan type : MBAFFScan order : Top Field FirstBits/(Pixel*Frame) : 0.203Stream size : 1.69 GiB (87%)Default : YesForced : NoColor primaries : BT.601 PALTransfer characteristics : BT.470 System B, BT.470 System GMatrix coefficients : BT.601Color range : Limited
AudioID : 2Format : MPEG AudioFormat version : Version 1Format profile : Layer 2Codec ID : A_MPEG/L2Codec ID/Hint : MP2Duration : 1h 54mnBit rate mode : ConstantBit rate : 256 KbpsChannel(s) : 2 channelsSampling rate : 48.0 KHzCompression mode : LossyStream size : 210 MiB (11%)Language : EnglishDefault : YesForced : No

Скриншот c названием фильма

[teatrix.ru].t6019.torrent 
Торрент: Зарегистрирован [ 2015-10-10 09:49 ] · 303F63EA3292E776E37B1327CC97F581596DB295

Скачать .torrent

Скачать

20 KB

Статус: проверено
Скачан: 0 раз
Размер: 1.93 GB
terms.php



Быстрый ответ

Имя:

      
Для отправки сообщений необходимо включить JavaScript
Показать сообщения:    

Текущее время: 10-Дек 00:23

Часовой пояс: UTC + 3


Вы можете начинать темы
Вы можете отвечать на сообщения
Вы не можете редактировать свои сообщения
Вы не можете удалять свои сообщения
Вы не можете голосовать в опросах
Вы не можете прикреплять файлы к сообщениям
Вы можете скачивать файлы