Фандо и Лиз / Fando y Lis (Алехандро Ходоровски / Alejandro Jodorowsky) [1968, Мексика, Сюрреалистическая драма, DVDRip-AVC] AVO (А. Алексеев) + Sub Rus + Original Spa


Статистика раздачи [Обновить пиров]
Размер:  2.08 GB   |    Зарегистрирован:  1 год 1 месяц   |    Скачан:  0 раз

Полного источника не было: Никогда

 
   
 
 
 

[Цитировать]

Фандо и Лиз / Fando y Lis
Страна: Мексика
Жанр: Сюрреалистическая драма
Год выпуска: 1968
Продолжительность: 01:39:03
Перевод: Авторский (одноголосый закадровый) А. Алексеев
Cубтитры: русские
Оригинальная аудиодорожка: испанский
Режиссер: Алехандро Ходоровски / Alejandro Jodorowsky
В ролях: Серджио Клейнер, Диана Марискаль, Мария Тереза Ривас, Тамара Гарина, Juan José Arreola, Rene Rebetez, Amparo Villegas, Miguel Alvares Acosta, Рауль Ромеро, Хулио Кастилло
Описание: Юноша Фандо катит на тележке белокурую красавицу Лиз, парализованную ниже пояса, в поисках Тарда, надеясь что в нем девушка сможет излечиться и родит ему много детей. Иногда ему приходится тащить ее на собственной спине. По пути им встречаются самые невообразимые люди. Дорога их долгая и более походит на кошмарный сон…
Сэмпл:
Качество видео: DVDRip-AVC
Формат видео: MKV
Видео: MPEG-4 AVC, 710x404@710x455, 23.976 кадр/с, 2500 Кбит/с
Аудио: Русский AC-3, 48.0 KHz, 192 Кбит/с, 2 ch
Аудио 2: Испанский AC-3, 48.0 KHz, 192 Кбит/с, 2 ch
Аудио 3: Комментарии AC-3, 48.0 KHz, 192 Кбит/с, 2 ch
Формат субтитров: softsub (SRT)

MediaInfo

General
Complete name : /media/lx1966/2.0 TB/Мои.рипы/Fando.Y.Lis.1968.DVDRip.x264/Fando.Y.Lis.1968.DVDRip.x264.rus.srt
File size : 24.5 KiB
General
Unique ID : 238615398712911110230483614100518988039 (0xB383A776DA7ABE5C9EAC57FF0965E907)
Complete name : /media/lx1966/2.0 TB/Мои.рипы/Fando.Y.Lis.1968.DVDRip.x264/Fando.Y.Lis.1968.DVDRip.x264.mkv
Format : Matroska
Format version : Version 4 / Version 2
File size : 2.08 GiB
Duration : 1h 36mn
Overall bit rate : 3 078 Kbps
Encoded date : UTC 2015-01-30 05:27:21
Writing application : mkvmerge v6.7.0 ('Back to the Ground') 64bit built on Jan 9 2014 18:03:17
Writing library : libebml v1.3.0 + libmatroska v1.4.1
TITLE : Fando.Y.Lis.1968.DVDRip.x264.mkv
ARTIST : Серджио Клейнер, Диана Марискаль, Мария Тереза Ривас, Тамара Гарина
DIRECTOR : Алехандро Ходоровски / Alejandro Jodorowsky
DATE_RELEASED : Мексика, 1968
SUMMARY : Rip by lx1966
GENRE : Сюрреалистическая драма
SYNOPSIS : Юноша Фандо катит на тележке белокурую красавицу Лиз, парализованную ниже пояса, в поисках Тарда, надеясь что в нем девушка сможет излечиться и родит ему много детей. Иногда ему приходится тащить ее на собственной спине. По пути им встречаются самые невообразимые люди. Дорога их долгая и более походит на кошмарный сон…
Video
ID : 1
Format : AVC
Format/Info : Advanced Video Codec
Format profile : High@L4.0
Format settings, CABAC : Yes
Format settings, ReFrames : 8 frames
Codec ID : V_MPEG4/ISO/AVC
Duration : 1h 36mn
Bit rate : 2 500 Kbps
Width : 710 pixels
Height : 404 pixels
Display aspect ratio : 16:10
Frame rate mode : Constant
Frame rate : 23.976 fps
Color space : YUV
Chroma subsampling : 4:2:0
Bit depth : 8 bits
Scan type : Progressive
Bits/(Pixel*Frame) : 0.364
Stream size : 1.65 GiB (79%)
Title : Алехандро Ходоровски / Alejandro Jodorowsky, 710x404@710x455, 23.976 кадр/с, 2500 Кбит/с
Writing library : x264 core 142 r2389 956c8d8
Encoding settings : cabac=1 / ref=8 / deblock=1:-3:-3 / analyse=0x3:0x133 / me=tesa / subme=11 / psy=1 / psy_rd=1,20:0,20 / mixed_ref=0 / me_range=24 / chroma_me=1 / trellis=2 / 8x8dct=1 / cqm=0 / deadzone=21,11 / fast_pskip=1 / chroma_qp_offset=-3 / threads=6 / lookahead_threads=1 / sliced_threads=0 / nr=0 / decimate=0 / interlaced=0 / bluray_compat=0 / constrained_intra=0 / bframes=11 / b_pyramid=2 / b_adapt=2 / b_bias=0 / direct=3 / weightb=1 / open_gop=0 / weightp=2 / keyint=240 / keyint_min=24 / scenecut=40 / intra_refresh=0 / rc_lookahead=60 / rc=2pass / mbtree=0 / bitrate=2500 / ratetol=1,0 / qcomp=0,60 / qpmin=0 / qpmax=69 / qpstep=4 / cplxblur=20,0 / qblur=0,5 / vbv_maxrate=20000 / vbv_bufsize=25000 / nal_hrd=none / filler=0 / ip_ratio=1,40 / pb_ratio=1,30 / aq=1:1,00
Language : Spanish
Default : Yes
Forced : No
Color primaries : BT.601 NTSC
Transfer characteristics : BT.709
Matrix coefficients : BT.601
Audio #1
ID : 2
Format : AC-3
Format/Info : Audio Coding 3
Mode extension : CM (complete main)
Format settings, Endianness : Big
Codec ID : A_AC3
Duration : 1h 36mn
Bit rate mode : Constant
Bit rate : 192 Kbps
Channel(s) : 2 channels
Channel positions : Front: L R
Sampling rate : 48.0 KHz
Bit depth : 16 bits
Compression mode : Lossy
Stream size : 133 MiB (6%)
Title : 48 kHz, AC3 Dolby Digital, 2/0 (L,R) ch, ~192 kbps, авторский (одноголосый) - Антон Алексеев
Language : Russian
Default : Yes
Forced : No
Audio #2
ID : 3
Format : AC-3
Format/Info : Audio Coding 3
Mode extension : CM (complete main)
Format settings, Endianness : Big
Codec ID : A_AC3
Duration : 1h 36mn
Bit rate mode : Constant
Bit rate : 192 Kbps
Channel(s) : 2 channels
Channel positions : Front: L R
Sampling rate : 48.0 KHz
Bit depth : 16 bits
Compression mode : Lossy
Stream size : 133 MiB (6%)
Title : 48 kHz, AC3 Dolby Digital, 2/0 (L,R) ch, ~192 kbps
Language : Spanish
Default : No
Forced : No
Audio #3
ID : 4
Format : AC-3
Format/Info : Audio Coding 3
Mode extension : CM (complete main)
Format settings, Endianness : Big
Codec ID : A_AC3
Duration : 1h 36mn
Bit rate mode : Constant
Bit rate : 192 Kbps
Channel(s) : 2 channels
Channel positions : Front: L R
Sampling rate : 48.0 KHz
Bit depth : 16 bits
Compression mode : Lossy
Stream size : 133 MiB (6%)
Title : 48 kHz, AC3 Dolby Digital, 2/0 (L,R) ch, ~192 kbps, комментарий
Language : Spanish
Default : No
Forced : No

Скриншот c названием фильма

Скриншоты



[teatrix.ru].t6020.torrent 
Торрент: Зарегистрирован [ 2015-10-10 09:49 ] · 052C4E9D314006AF6C80F5DB3AB0340528B89EDE

Скачать .torrent

Скачать

11 KB

Статус: проверено
Скачан: 0 раз
Размер: 2.08 GB
terms.php



Быстрый ответ

Имя:

      
Для отправки сообщений необходимо включить JavaScript
Показать сообщения:    

Текущее время: 04-Дек 23:25

Часовой пояс: UTC + 3


Вы можете начинать темы
Вы можете отвечать на сообщения
Вы не можете редактировать свои сообщения
Вы не можете удалять свои сообщения
Вы не можете голосовать в опросах
Вы не можете прикреплять файлы к сообщениям
Вы можете скачивать файлы