Четыре минуты / Vier Minuten (Крис Краус / Chris Kraus) [2006, Германия, драма, музыка, BDRip] DVO


 

[Цитировать]

Четыре минуты / Vier Minuten«The next German film sensation after The Lives of Others»- Год выпуска: 2006
Жанр: драма, музыка
Страна: Германия
Продолжительность: 01:55:18
Перевод: Профессиональный (двухголосый, закадровый) Студия "Elrom"
Субтитры: нет-Режиссёр: Крис Краус / Chris Kraus-В ролях: Моника Бляйбтрой, Ханна Херцшпрунг, Свен Пиппиг, Рихи Мюллер, Йасмин Табатабай, Штефан Курт, Вадим Гловна, Надя Уль, Питер Давор, Эдита Маловчич, Кристиан Корнер, Катрин Кестлер, Эмбер Бонгард, Дитрих Холлиндербаумер, Дитер Моор, Мария Хартманн, Изольде Фишер, Ирен Риндье, Габриэль Шефер, Торстен Ранфт, Лара Бекманн, Дагмар Лиш, Тони Шольц, Роберто Гальвес, Давид Риттерхаус, Джулиана Альбрехт, Даниэла Грош, Том Джестер-Описание: Пожилая женщина устраивается в тюрьму для женщин учителем по игре на фортепьяно. На уроки записываются четыре заключённых, одна из которых повесилась, другая нервная, третья ничем не примечательная, а четвёртая обладает божьим даром выдавать из обычного фортепьяно великолепное звучание. Учитель не мог поверить, что такой конченый человек, сгнивающий в четырёх бетонных стенах, способен путём музыкального инструмента так превосходно сыграть радостную негритянскую музыку, несмотря на все свои невзгоды и заведённое на неё за убийство дело. Пожилой преподаватель видит её дар и подаёт ей руку помощи, предлагая развить талант и выступить на некоторых концертах юных композиторов.- -Сэмпл: http://multi-up.com/1029497-Качество: BDRip [исх. BDRemux / 1080p / HDCLUB]
Формат: AVI
Видео: 656x368 (1.78:1), 23.976 fps, XviD build 73 ~1355 kbps avg, 0.23 bit/pixel
Аудио: 48 kHz, AC3 Dolby Digital, 3/2 (L,C,R,l,r) + LFE ch, ~448.00 kbps avg
-

Media Info

Format                      : AVI
Format/Info                 : Audio Video Interleave
File size                   : 1.46 GiB
Duration                    : 1h 55mn
Overall bit rate            : 1 812 Kbps
Writing application         : VirtualDubMod 1.5.10.3 | www.virtualdub-fr.org || (build 2550/release)
Writing library             : VirtualDubMod build 2550/release
Video
ID                          : 0
Format                      : MPEG-4 Visual
Format profile              : Advanced Simple@L5
Format settings, BVOP       : 1
Format settings, QPel       : No
Format settings, GMC        : No warppoints
Format settings, Matrix     : Custom
Codec ID                    : XVID
Codec ID/Hint               : XviD
Duration                    : 1h 55mn
Bit rate                    : 1 355 Kbps
Width                       : 656 pixels
Height                      : 368 pixels
Display aspect ratio        : 16:9
Frame rate                  : 23.976 fps
Color space                 : YUV
Chroma subsampling          : 4:2:0
Bit depth                   : 8 bits
Scan type                   : Progressive
Compression mode            : Lossy
Bits/(Pixel*Frame)          : 0.234
Stream size                 : 1.09 GiB (75%)
Writing library             : XviD 73
Audio
ID                          : 1
Format                      : AC-3
Format/Info                 : Audio Coding 3
Mode extension              : CM (complete main)
Format settings, Endianness : Big
Codec ID                    : 2000
Duration                    : 1h 55mn
Bit rate mode               : Constant
Bit rate                    : 448 Kbps
Channel(s)                  : 6 channels
Channel positions           : Front: L C R, Side: L R, LFE
Sampling rate               : 48.0 KHz
Bit depth                   : 16 bits
Compression mode            : Lossy
Stream size                 : 370 MiB (25%)
Alignment                   : Split accross interleaves
Interleave, duration        : 42 ms (1.00 video frame)
Interleave, preload duratio : 500 ms

Скриншоты

-Перевод Кузнецова можно скачать здесь - http://teatrix.ru/viewtopic.php?t=6026 спасибо teko



Показать сообщения:    

Текущее время: 09-Дек 16:30

Часовой пояс: UTC + 3


Вы не можете начинать темы
Вы не можете отвечать на сообщения
Вы не можете редактировать свои сообщения
Вы не можете удалять свои сообщения
Вы не можете голосовать в опросах
Вы не можете прикреплять файлы к сообщениям
Вы не можете скачивать файлы