Чудеса / Le meraviglie (Аличе Рорвахер / Alice Rohrwacher) [2014, Италия, Драма, DVDRip] + Sub Rus + Original Ita


Статистика раздачи [Обновить пиров]
Размер:  1.46 GB   |    Зарегистрирован:  1 год 1 месяц   |    Скачан:  0 раз

Полного источника не было: Никогда

 
   
 
 
 

[Цитировать]

Чудеса / Le meraviglie
Страна: Италия
Жанр: Драма
Год выпуска: 2014
Продолжительность: 01:46:52
Перевод: Субтитры (nestejatel)
Cубтитры: русские
Оригинальная аудиодорожка: итальянский
Режиссер: Аличе Рорвахер / Alice Rohrwacher
В ролях: Альба Рорвахер / Alba Rohrwacher, Мария Александра Лунгу / Maria Alexandra Lungu, Сэм Лувик / Sam Louwyck, Моника Беллучи / Monica Bellucci
Описание: На севере итальянской провинции Тоскана живет многодетная семья. Ее патриархальный образ жизни ревниво охраняется отцом-деспотом. Однако, устои начинают рушатся, когда в деревню пребывает съемочная группа.
Сэмпл: http://sendfile.su/1077720
Качество видео: DVDRip
Формат видео: AVI
Видео: 1 500 Kbps, 720*384 (1.85:1), at 25 fps, MPEG-4 Visual (XviD)
Аудио: 448 Kbps, 48.0 KHz, 16 bits, 6 channels, AC-3
Формат субтитров: softsub (SRT)

MediaInfo

General
Complete name : C:\Users\Никита\Videos\Чудеса\Le.Meraviglie.avi
Format : AVI
Format/Info : Audio Video Interleave
File size : 1.46 GiB
Duration : 1h 46mn
Overall bit rate : 1 957 Kbps
Writing application : VirtualDubMod 1.5.10.3 | www.virtualdub-fr.org || (build 2550/release)
Writing library : VirtualDubMod build 2550/release
Video
ID : 0
Format : MPEG-4 Visual
Format profile : Advanced Simple@L5
Format settings, BVOP : 1
Format settings, QPel : No
Format settings, GMC : No warppoints
Format settings, Matrix : Default (MPEG)
Codec ID : XVID
Codec ID/Hint : XviD
Duration : 1h 46mn
Bit rate : 1 500 Kbps
Width : 720 pixels
Height : 384 pixels
Display aspect ratio : 1.85:1
Frame rate : 25.000 fps
Color space : YUV
Chroma subsampling : 4:2:0
Bit depth : 8 bits
Scan type : Progressive
Compression mode : Lossy
Bits/(Pixel*Frame) : 0.217
Stream size : 1.12 GiB (77%)
Writing library : XviD 1.2.1 (UTC 2008-12-04)
Audio
ID : 1
Format : AC-3
Format/Info : Audio Coding 3
Mode extension : CM (complete main)
Format settings, Endianness : Big
Codec ID : 2000
Duration : 1h 46mn
Bit rate mode : Constant
Bit rate : 448 Kbps
Channel(s) : 6 channels
Channel positions : Front: L C R, Side: L R, LFE
Sampling rate : 48.0 KHz
Bit depth : 16 bits
Compression mode : Lossy
Stream size : 342 MiB (23%)
Alignment : Split accross interleaves
Interleave, duration : 40 ms (1.00 video frame)
Interleave, preload duration : 500 ms

Скриншоты

[teatrix.ru].t6025.torrent 
Торрент: Зарегистрирован [ 2015-10-10 09:49 ] · 42DFE729A5382E135D3195AC8514EC9EF32F86BA

Скачать .torrent

Скачать

15 KB

Статус: проверено
Скачан: 0 раз
Размер: 1.46 GB
terms.php



Быстрый ответ

Имя:

      
Для отправки сообщений необходимо включить JavaScript
Показать сообщения:    

Текущее время: 07-Дек 21:23

Часовой пояс: UTC + 3


Вы можете начинать темы
Вы можете отвечать на сообщения
Вы не можете редактировать свои сообщения
Вы не можете удалять свои сообщения
Вы не можете голосовать в опросах
Вы не можете прикреплять файлы к сообщениям
Вы можете скачивать файлы