Четыре минуты / Vier Minuten (Крис Краус / Chris Kraus) [2006, Германия, драма, BDRip] DVO (Элром) + AVO (Кузнецов) + Sub Rus + Original Ger


 

[Цитировать]

Четыре минуты / Vier Minuten
Страна: Германия
Жанр: драма
Год выпуска: 2006
Продолжительность: 01:55:18
Перевод: Профессиональный (двухголосый закадровый) - Элром
Перевод: Авторский (одноголосый закадровый) - Сергей Кузнецов
Cубтитры: русские
Оригинальная аудиодорожка: немецкий

Режиссер: Крис Краус / Chris Kraus
В ролях: Моника Бляйбтрой, Ханна Херцшпрунг, Свен Пиппиг, Ричи Мюллер, Джасмин Табатабай, Стефан Курт, Вадим Гловна, Надя Уль, Питер Давор, Эдита Маловцик
Описание: Пожилая женщина устраивается в тюрьму для женщин учителем по игре на фортепьяно. На уроки записываются четыре заключённых, одна из которых повесилась, другая нервная, третья ничем не примечательная, а четвёртая обладает божьим даром выдавать из обычного фортепьяно великолепное звучание. Учитель не могла поверить, что такой конченый человек, сгнивающий в четырёх бетонных стенах, способен путём музыкального инструмента так превосходно сыграть радостную негритянскую музыку, несмотря на все свои невзгоды и заведённое на неё за убийство дело. Пожилая преподаватель видит её дар и подаёт ей руку помощи, предлагая развить талант и выступить на некоторых концертах юных исполнителей...
Качество видео: BDRip [FOUR_MINUTES_2006_REMUX_HDCLUB]
Формат видео: AVI
Видео: 720x400 (1.80:1), 23.976 fps, XviD build 73 ~2251 kbps avg, 0.33 bit/pixel
Аудио: 48 kHz, AC3 Dolby Digital, 3/2 (L,C,R,l,r) + LFE ch, ~448 kbps - двухголосый
отдельными файлами:
Аудио: 48 kHz, AC3 Dolby Digital, 2/0 (L,R) ch, ~192 kbps - Кузнецов
Аудио: 48 kHz, AC3 Dolby Digital, 3/2 (L,C,R,l,r) + LFE ch, ~448 kbps - оригинал

MediaInfo

Общее
Полное имя : H:\Vier.Minuten.2006.bdrip_[2.18]_[teko]\Vier.Minuten.2006.bdrip_[2.18].avi
Формат : AVI
Формат/Информация : Audio Video Interleave
Профиль формата : OpenDML
Размер файла : 2,18 Гбайт
Продолжительность : 1 ч. 55 м.
Общий поток : 2707 Кбит/сек
Программа кодирования : VirtualDubMod 1.5.10.3 | www.virtualdub-fr.org || (build 2550/release)
Библиотека кодирования : VirtualDubMod build 2550/release
Видео
Идентификатор : 0
Формат : MPEG-4 Visual
Профиль формата : Advanced Simple@L5
Параметр BVOP формата : 1
Параметр QPel формата : Нет
Параметр GMC формата : Без точки перехода
Параметр матрицы формата : Выборочная
Идентификатор кодека : XVID
Идентификатор кодека/Подсказка : XviD
Продолжительность : 1 ч. 55 м.
Битрейт : 2247 Кбит/сек
Ширина : 720 пикселей
Высота : 400 пикселей
Соотношение сторон : 16:9
Частота кадров : 23,976 кадра/сек
Цветовое пространство : YUV
Субдискретизация насыщенности : 4:2:0
Битовая глубина : 8 бит
Тип развёртки : Прогрессивная
Метод сжатия : С потерями
Бит/(Пиксели*Кадры) : 0.325
Размер потока : 1,81 Гбайт (83%)
Библиотека кодирования : XviD 73
Аудио
Идентификатор : 1
Формат : AC-3
Формат/Информация : Audio Coding 3
Расширение режима : CM (complete main)
Параметр Endianness формата : Big
Идентификатор кодека : 2000
Продолжительность : 1 ч. 55 м.
Вид битрейта : Постоянный
Битрейт : 448 Кбит/сек
Каналы : 6 каналов
Расположение каналов : Front: L C R, Side: L R, LFE
Частота : 48,0 КГц
Битовая глубина : 16 бит
Метод сжатия : С потерями
Размер потока : 370 Мбайт (17%)
Выравнивание : Разделение по промежуткам
Продолжительность промежутка : 42 мс. (1,00 видеокадр)
Время предзагрузки промежутка : 500 мс.



Показать сообщения:    

Текущее время: 10-Дек 17:38

Часовой пояс: UTC + 3


Вы не можете начинать темы
Вы не можете отвечать на сообщения
Вы не можете редактировать свои сообщения
Вы не можете удалять свои сообщения
Вы не можете голосовать в опросах
Вы не можете прикреплять файлы к сообщениям
Вы не можете скачивать файлы