В королевстве Неаполя / Неаполитанские братья и сёстры / Королевство Неаполь / Neapolitanische Geschichten / Nel Regno di Napoli (Вернер Шрётер / Werner Schroeter) [1978, Италия, Германия (ФРГ), Драма, DVDRip] VO + Sub Rus + Original Ita


Статистика раздачи [Обновить пиров]
Размер:  2.37 GB   |    Зарегистрирован:  1 год 1 месяц   |    Скачан:  0 раз

Полного источника не было: Никогда

 
   
 
 
 

[Цитировать]

Неаполитанские братья и сёстры / Королевство Неаполь / Neapolitanische Geschichten / Nel Regno di Napoli
Страна: Италия, Германия (ФРГ)
Жанр: Драма
Год выпуска: 1978
Продолжительность: 02:10:38
Перевод: Одноголосый закадровый
Cубтитры: русские
Оригинальная аудиодорожка: итальянский
Режиссер: Вернер Шрётер / Werner Schroeter
В ролях: Ромео Джиро, Антонио Орландо, Тициана Амбретти, Мария Антониетта Ригел, Кристина Донадио, Дино Меле, Рената Заменго, Лиана Труше, Лаура Содано, Рауль Хименес, Маргарет Клементи, Ида Ди Бенедетто
Описание: Массимо и его прелестная сестра Виттория – дети бедняцкого Неаполя. Это эпическая хроника 33-х лет их жизни от завершения Второй мировой войны и до скончания коммунистической мечты, от чаяний к разочарованиям…
«Неаполитанские братья и сёстры» стали первой повествовательной картиной Шрётера, принесли ему премию German Film Awards за лучшую режиссуру и операторскую работу, а также оказались одним из любимых фильмов Райнера Вернера Фассбиндера.
Вот что об этой картине писал известнейший французский кинокритик Серж Даней в Cahiers du cinema: «Левая» история, китчевая мелодрама, декадентское fotoromanzo, городская хроника, опера в миниатюре или просто-напросто первый «реалистичный» и «нарративный» фильм Шрётера? «Неаполитианские братья и сёстры» представляет собой всё разом, но, прежде всего, это — вереница разочарований всех великих рассказов, питавших итальянское послевоенное кино (действие фильма происходит с 1943 по 1972 годы: тридцать лет, целое поколение) — и эта вереница увидена из точки разочарования, Неаполя».
Сэмпл: http://multi-up.com/1028844
Качество видео: DVDRip
Формат видео: AVI
Видео: 720x432 (1.67:1), 25 fps, XviD MPEG-4 ~2196 kbps avg, 0.28 bit/pixel
Аудио 1: 48 kHz, AC3 Dolby Digital, 2/0 (L,R) ch, ~192.00 kbps avg(Русский)
Аудио 2: 48 kHz, AC3 Dolby Digital, 2/0 (L,R) ch, ~192.00 kbps avg(Итальянский)
Формат субтитров: softsub (SRT)
Доп. информация о субтитрах: Русские внешние (Сергея Макутина)

MediaInfo

Общее
Полное имя : F:\С моей озвучкой\Неаполитанские братья и сёстры\Неаполитанские братья и сёстры.avi
Формат : AVI
Формат/Информация : Audio Video Interleave
Профиль формата : OpenDML
Размер файла : 2,37 Гбайт
Продолжительность : 2 ч. 10 м.
Общий поток : 2598 Кбит/сек
Программа кодирования : VirtualDubModRus 1.5.10.2 (build 2542/release)
Библиотека кодирования : VirtualDubMod build 2542/release
Видео
Идентификатор : 0
Формат : MPEG-4 Visual
Профиль формата : Advanced Simple@L5
Параметр BVOP формата : 1
Параметр QPel формата : Нет
Параметр GMC формата : Без точки перехода
Параметр матрицы формата : Выборочная
Идентификатор кодека : XVID
Идентификатор кодека/Подсказка : XviD
Продолжительность : 2 ч. 10 м.
Битрейт : 2196 Кбит/сек
Ширина : 720 пикселей
Высота : 432 пикселя
Соотношение сторон : 1,667
Частота кадров : 25,000 кадров/сек
Цветовое пространство : YUV
Субдискретизация насыщенности : 4:2:0
Битовая глубина : 8 бит
Тип развёртки : Прогрессивная
Метод сжатия : С потерями
Бит/(Пиксели*Кадры) : 0.282
Размер потока : 2,00 Гбайт (85%)
Библиотека кодирования : XviD 64
Аудио #1
Идентификатор : 1
Формат : AC-3
Формат/Информация : Audio Coding 3
Расширение режима : CM (complete main)
Параметр Endianness формата : Big
Идентификатор кодека : 2000
Продолжительность : 2 ч. 10 м.
Вид битрейта : Постоянный
Битрейт : 192 Кбит/сек
Каналы : 2 канала
Расположение каналов : Front: L R
Частота : 48,0 КГц
Битовая глубина : 16 бит
Метод сжатия : С потерями
Размер потока : 179 Мбайт (7%)
Выравнивание : Разделение по промежуткам
Продолжительность промежутка : 40 мс. (1,00 видеокадр)
Время предзагрузки промежутка : 500 мс.
Аудио #2
Идентификатор : 2
Формат : AC-3
Формат/Информация : Audio Coding 3
Расширение режима : CM (complete main)
Параметр Endianness формата : Big
Идентификатор кодека : 2000
Продолжительность : 2 ч. 10 м.
Вид битрейта : Постоянный
Битрейт : 192 Кбит/сек
Каналы : 2 канала
Расположение каналов : Front: L R
Частота : 48,0 КГц
Битовая глубина : 16 бит
Метод сжатия : С потерями
Размер потока : 179 Мбайт (7%)
Выравнивание : Разделение по промежуткам
Продолжительность промежутка : 40 мс. (1,00 видеокадр)
Время предзагрузки промежутка : 500 мс.

Скриншоты

[teatrix.ru].t6027.torrent 
Торрент: Зарегистрирован [ 2015-10-10 09:49 ] · 2DA11A35BCC8CC21CD51BA0448D94B3CE01A9CA5

Скачать .torrent

Скачать

13 KB

Статус: проверено
Скачан: 0 раз
Размер: 2.37 GB
terms.php



Быстрый ответ

Имя:

      
Для отправки сообщений необходимо включить JavaScript
Показать сообщения:    

Текущее время: 05-Дек 17:32

Часовой пояс: UTC + 3


Вы можете начинать темы
Вы можете отвечать на сообщения
Вы не можете редактировать свои сообщения
Вы не можете удалять свои сообщения
Вы не можете голосовать в опросах
Вы не можете прикреплять файлы к сообщениям
Вы можете скачивать файлы