Самые красивые / The Most Beautiful / Ichiban utsukushiku (Акира Куросава / Akira Kurosawa) [1944, Япония, драма, BDRip] DVO (студия Инис) + Sub Rus, Eng + Original Jap


 

[Цитировать]

Самые красивые / The Most Beautiful / Ichiban utsukushiku
Страна: Япония
Студия: Toho Company
Жанр: драма
Год выпуска: 1944
Продолжительность: 01:27:11
Перевод: Профессиональный (двухголосый закадровый) студия Инис
Cубтитры: русские, английские
Оригинальная аудиодорожка: японский
Режиссер: Акира Куросава / Akira Kurosawa
В ролях: Такаси Симура, Сёдзи Киёкава, Итиро Сугаи, Такако Ириэ, Йоко Ягучи, Sayuri Tanima, Сачико Озаки, Сидзуко Нишигаки, Асако Сузуки, Харуко Тояма
Описание: Фильм рассказывает о нелёгком труде женщин на военном заводе. Героини показаны не патриотично-иступлёнными автоматами, а живыми людьми, тонко чувствующими и способными на глубокие переживания.
II Сэмпл II IMDB II
Релиз группа:

Доп. информация:
За перевод студии Инис спасибо G00ba
Качество видео: BDRip - BDRip 1080p
Формат видео: AVI
Видео: Xvid 720x544 (4:3) 23.976fps Bit rate 1973Kbps b/p 0.210
Аудио 1: AC3 48.0 KHz 2ch. 192kbps rus dvo
Аудио 2: AC3 48.0 KHz 2ch. 192kbps jap
Формат субтитров: softsub (SRT)

MediaInfo

Общее
Полное имя : E:\torrent\The.Most.Beautiful.1944.BDRip.Sub.Rus.Eng\The.Most.Beautiful.1944.BDRip.avi
Формат : AVI
Формат/Информация : Audio Video Interleave
Размер файла : 1,44 Гбайт
Продолжительность : 1 ч. 27 м.
Общий поток : 2371 Кбит/сек
Программа кодирования : VirtualDubMod 1.5.10.3 (build 2550/release)
Библиотека кодирования : VirtualDubMod build 2550/release
Видео
Идентификатор : 0
Формат : MPEG-4 Visual
Профиль формата : Advanced Simple@L5
Параметр BVOP формата : 2
Параметр QPel формата : Нет
Параметр GMC формата : Без точки перехода
Параметр матрицы формата : Default (MPEG)
Идентификатор кодека : XVID
Идентификатор кодека/Подсказка : XviD
Продолжительность : 1 ч. 27 м.
Битрейт : 1973 Кбит/сек
Ширина : 720 пикселей
Высота : 544 пикселя
Соотношение сторон : 4:3
Частота кадров : 23,976 кадра/сек
Цветовое пространство : YUV
Субдискретизация насыщенности : 4:2:0
Битовая глубина : 8 бит
Тип развёртки : Прогрессивная
Метод сжатия : С потерями
Бит/(Пиксели*Кадры) : 0.210
Размер потока : 1,20 Гбайт (83%)
Библиотека кодирования : XviD 1.2.1 (UTC 2008-12-04)
Аудио #1
Идентификатор : 1
Формат : AC-3
Формат/Информация : Audio Coding 3
Расширение режима : CM (complete main)
Параметр Endianness формата : Big
Идентификатор кодека : 2000
Продолжительность : 1 ч. 27 м.
Вид битрейта : Постоянный
Битрейт : 192 Кбит/сек
Каналы : 2 канала
Расположение каналов : Front: L R
Частота : 48,0 КГц
Битовая глубина : 16 бит
Метод сжатия : С потерями
Размер потока : 120 Мбайт (8%)
Выравнивание : Разделение по промежуткам
Продолжительность промежутка : 42 мс. (1,00 видеокадр)
Время предзагрузки промежутка : 500 мс.
Аудио #2
Идентификатор : 2
Формат : AC-3
Формат/Информация : Audio Coding 3
Расширение режима : CM (complete main)
Параметр Endianness формата : Big
Идентификатор кодека : 2000
Продолжительность : 1 ч. 27 м.
Вид битрейта : Постоянный
Битрейт : 192 Кбит/сек
Каналы : 2 канала
Расположение каналов : Front: L R
Частота : 48,0 КГц
Битовая глубина : 16 бит
Метод сжатия : С потерями
Размер потока : 120 Мбайт (8%)
Выравнивание : Разделение по промежуткам
Продолжительность промежутка : 42 мс. (1,00 видеокадр)
Время предзагрузки промежутка : 500 мс.

Скриншот c названием фильма

Скриншоты





Показать сообщения:    

Текущее время: 08-Дек 21:12

Часовой пояс: UTC + 3


Вы не можете начинать темы
Вы не можете отвечать на сообщения
Вы не можете редактировать свои сообщения
Вы не можете удалять свои сообщения
Вы не можете голосовать в опросах
Вы не можете прикреплять файлы к сообщениям
Вы не можете скачивать файлы