Кто убил Пишота? / Quem Matou Pixote? (José Joffily / Жозе Жоффоли) [1996, Бразилия, драма, биография, DVDRip-AVC] AVO (Сергей Кузнецов)


Статистика раздачи [Обновить пиров]
Размер:  1.43 GB   |    Зарегистрирован:  1 год 1 месяц   |    Скачан:  1 раз

Полного источника не было: 2 месяца 14 дней

 
   
 
 
 

[Цитировать]

Кто убил Пишота? / Quem Matou Pixote?
Страна: Бразилия
Жанр: драма, биография
Год выпуска: 1996
Продолжительность: 01:51:16
Перевод: Авторский (одноголосый закадровый) Сергей Кузнецов
Режиссер: José Joffily / Жозе Жоффоли
В ролях:
Кассиано Карнейру
Luciana Rigueira
Джоана Фомм
Тука Андрада
Роберту Бонтемпу
Кэрол Мачадо
Мария Луиза Мендонса
Антонио Абужамра
Janser Barreto
Паоло Бетти
Описание: Рассказ о том, как сложилась судьба Пишота в юношестве. Фернандо, сыграв одну роль Пишота, не стал знаменит.
Напротив, он вынужден был просить Бабенко (режиссера «Пишота») снять его хотя бы в какой-то мыльной опере, но у него мало что получалось.
Судьба Фернандо удивительным образом напоминает судьбу его героя Пишота: то же скатывание на криминальную дорожку, та же индифферентность общества к судьбе мальчика.
И плохой конец…
Пример видео: https://yadi.sk/i/KMxtAFxteCSwA
Качество видео: DVDRip-AVC
Формат видео: AVI
Видео: H264, 1 634 Kbps, 720x576, 25.000 fps
Аудио: AAC, 48.0 KHz, 192 Kbps, 2 channels

инфо

General
Complete name : D:\torrent\1 раздачи\Кто убил Пишота\Кто убил Пишота.avi
Format : AVI
Format/Info : Audio Video Interleave
Format profile : OpenDML
File size : 1.43 GiB
Duration : 1h 51mn
Overall bit rate mode : Variable
Overall bit rate : 1 841 Kbps
Writing application : Lavf55.12.100
Video
ID : 1
Format : AVC
Format/Info : Advanced Video Codec
Format profile : Main@L3.0
Format settings, CABAC : Yes
Format settings, ReFrames : 2 frames
Format settings, GOP : M=1, N=25
Codec ID : H264
Duration : 1h 51mn
Bit rate : 1 634 Kbps
Width : 720 pixels
Height : 576 pixels
Display aspect ratio : 4:3
Frame rate mode : Variable
Frame rate : 25.000 fps
Standard : PAL
Color space : YUV
Chroma subsampling : 4:2:0
Bit depth : 8 bits
Scan type : Progressive
Bits/(Pixel*Frame) : 0.158
Stream size : 1.27 GiB (89%)
Audio
ID : 0
Format : AAC
Format/Info : Advanced Audio Codec
Format version : Version 2
Format profile : LC
Muxing mode : ADTS
Codec ID : FF
Duration : 1h 51mn
Bit rate mode : Variable
Bit rate : 192 Kbps
Channel count : 2 channels
Channel positions : Front: L R
Sampling rate : 48.0 KHz
Compression mode : Lossy
Stream size : 153 MiB (10%)
Alignment : Aligned on interleaves
Interleave, duration : 40 ms (1.00 video frame)

Скриншоты

Эта раздача - вторая часть фильма
Пишоте: Закон самого слабого / Pixote: A Lei do Mais Fraco
[teatrix.ru].t6034.torrent 
Торрент: Зарегистрирован [ 2015-10-10 09:49 ] · D11071B49C27C2595D98FD8C9AB55906EE0058FD

Скачать .torrent

Скачать

15 KB

Статус: проверено
Скачан: 1 раз
Размер: 1.43 GB
terms.php



Быстрый ответ

Имя:

      
Для отправки сообщений необходимо включить JavaScript
Показать сообщения:    

Текущее время: 08-Дек 09:03

Часовой пояс: UTC + 3


Вы можете начинать темы
Вы можете отвечать на сообщения
Вы не можете редактировать свои сообщения
Вы не можете удалять свои сообщения
Вы не можете голосовать в опросах
Вы не можете прикреплять файлы к сообщениям
Вы можете скачивать файлы