Тайваньская канаста / Tajvanska kanasta (Горан Маркович / Goran Markovic) [1985, Югославия, комедия, драма, VHSRip] VO


Статистика раздачи [Обновить пиров]
Размер:  707 MB   |    Зарегистрирован:  1 год 1 месяц   |    Скачан:  0 раз

Полного источника не было: Никогда

 
   
 
 
 

[Цитировать]

Тайваньская канаста / Tajvanska kanasta
Страна: Югославия
Жанр: комедия, драма
Год выпуска: 1985
Продолжительность: 01:30:14
Перевод: Одноголосый закадровый Миллиган (по субтитрам Antonio Salazar)
Cубтитры: нет
Режиссер: Горан Маркович / Goran Markovic
В ролях: Борис Комненич, Неда Арнерич, Гордана Гаджич, Предраг Манойлович, Радко Полич
Описание: Тайваньская канаста – это несуществующая карточная игра в которую режется главный герой перед тем, как его жизнь круто изменится. Саша Белополянский – безработный архитектор, в свои тридцать с гаком все еще большой ребенок, самым ярким событием в жизни коего стало участие в студенческих беспорядках 1968 года. Он неглуп, нравится женщинам и обладает умением гладко изъясняться на интеллектуальные темы, но любые попытки сделать что-то в реальной жизни заканчиваются катастрофически. А чаще всего до этого и не доходит – Саша страдает яркой формой абулии, отсутствием воли и при этом грандиозный эгоист. Не случайно его имя и фамилия звучат не по-балкански, это скорее русский тип сидящего на печке умника, разглагольствующего ленивца, эксперта с мировым именем в области всего. Его забавные, а если вдуматься – невеселые похождения, приводящие к определенному жизненному итогу и легли в основу очередного фильма Горана Марковича.
Доп. информация: Большое спасибо студии и Миллигану за озвучивание фильма.
Сэмпл: http://multi-up.com/1028286
Качество видео: VHSRip
Формат видео: AVI
Видео: DX50, 704x528 (4:3), 25 fps, 958 kbps
Аудио: MS Stereo, 48 kHz, 2 ch, 128 kbps

MediaInfo

Формат : AVI
Формат/Информация : Audio Video Interleave
Размер файла : 707 Мбайт
Продолжительность : 1 ч. 30 м.
Общий поток : 1095 Кбит/сек
Программа кодирования : VirtualDubMod 1.5.4.1 (build 2178/release)
Библиотека кодирования : VirtualDub build 35491/release
Видео
Идентификатор : 0
Формат : MPEG-4 Visual
Параметр BVOP формата : 1
Параметр QPel формата : Нет
Параметр GMC формата : Без точки перехода
Параметр матрицы формата : Default (H.263)
Режим смешивания : Сжатый битовый поток
Идентификатор кодека : DX50
Идентификатор кодека/Подсказка : DivX 5
Продолжительность : 1 ч. 30 м.
Битрейт : 958 Кбит/сек
Ширина : 704 пикселя
Высота : 528 пикселей
Соотношение сторон : 4:3
Частота кадров : 25,000 кадров/сек
Цветовое пространство : YUV
Субдискретизация насыщенности : 4:2:0
Битовая глубина : 8 бит
Тип развёртки : Прогрессивная
Метод сжатия : С потерями
Бит/(Пиксели*Кадры) : 0.103
Размер потока : 618 Мбайт (87%)
Библиотека кодирования : DivX 6.1.1 (UTC 2006-02-01)
Аудио
Идентификатор : 1
Формат : MPEG Audio
Версия формата : Version 1
Профиль формата : Layer 3
Режим : Joint stereo
Расширение режима : MS Stereo
Идентификатор кодека : 55
Идентификатор кодека/Подсказка : MP3
Продолжительность : 1 ч. 30 м.
Вид битрейта : Постоянный
Битрейт : 128 Кбит/сек
Каналы : 2 канала
Частота : 48,0 КГц
Метод сжатия : С потерями
Размер потока : 82,6 Мбайт (12%)
Выравнивание : Разделение по промежуткам
Продолжительность промежутка : 40 мс. (1,00 видеокадр)
Время предзагрузки промежутка : 500 мс.

Скриншот c названием фильма

Скриншоты




[teatrix.ru].t6037.torrent 
Торрент: Зарегистрирован [ 2015-10-10 09:49 ] · 7FBBF8E22C8136FC8F8FF836BDCBEADAC5C75F9F

Скачать .torrent

Скачать

14 KB

Статус: проверено
Скачан: 0 раз
Размер: 707 MB
terms.php



Быстрый ответ

Имя:

      
Для отправки сообщений необходимо включить JavaScript
Показать сообщения:    

Текущее время: 08-Дек 07:04

Часовой пояс: UTC + 3


Вы можете начинать темы
Вы можете отвечать на сообщения
Вы не можете редактировать свои сообщения
Вы не можете удалять свои сообщения
Вы не можете голосовать в опросах
Вы не можете прикреплять файлы к сообщениям
Вы можете скачивать файлы