Подушка с дурманом / Airbag (Хуанма Бахо Ульоа / Juanma Bajo Ulloa) [1997 г., Испания, Португалия, Германия, Комедия, Криминал, BDRip] AVO (Карповский) + AVO (Алексеев)


 

[Цитировать]

Подушка с дурманом / Airbag
Год выпуска: 1997
Страна: Испания, Португалия, Германия
Жанр: Комедия, Криминал
Продолжительность: 2:12:07
Перевод 1: Авторский (одноголосый закадровый), Антон Карповский
Перевод 2: Авторский (одноголосый закадровый), Антон Алексеев
Cубтитры: нет
Режиссер: Хуанма Бахо Ульоа / Juanma Bajo Ulloa
В ролях: Фернандо Гильен Куэрво /Fernando Guillén Cuervo/, Карра Элехальде /Karra Elejalde/, Альберто Сан Хуан /Alberto San Juan/, Мануэль Манкинья /Manuel Manquiña/, Мария де Медейруш /Maria de Medeiros/, Франсиско Рабаль /Francisco Rabal/
Описание: Парень - маменькин сынок решает жениться, но теряет обручальное кольцо после ночи в борделе. Поиски потерянного кольца, наркомафия, проститутки с золотым сердцем, автогонки и взрывы сменяются на экране с головокружительной скоростью...
Исходник видео:
Качество видео: BDRip
Формат видео: AVI
Видео кодек: XviD
Аудио кодек: AC3
Видео: 720x304, 24,000 fps, 1779 kbps
Аудио: 48000Hz, DD 5.1, 384 kbps (Карповский)
Аудио: 48000Hz, stereo, 192 kbps (Алексеев)
Скачать: SAMPLE 42.70MB
Доп. информация: За перевод, данного фильма у Антона Карповского, выражается благодарность пользователям форума hdtracker: KpucTo161, SavineX, dunhill200, Role, shtift, Dr. Destructo, zeleniydzhan, Xerman13, feldeger, arvideo, Диммон, MeGUI.
Дорожка с переводом Антона Алексеева взята с DVD-версии (02:00:22) и подогнана под Blu-ray; есть незначительные по продолжительности места без перевода.
Работа со звуком KpucTo161.

MediaInfo

Формат : AVI
Формат/Информация : Audio Video Interleave
Профиль формата : OpenDML
Размер файла : 2,19 Гбайт
Продолжительность : 2 ч. 12 м.
Общий поток : 2373 Кбит/сек
Программа кодирования : VirtualDubMod 1.5.4.1 (build 2178/release)
Библиотека кодирования : VirtualDubMod build 2178/release
Видео
Идентификатор : 0
Формат : MPEG-4 Visual
Профиль формата : Advanced Simple@L5
Параметр BVOP формата : 1
Параметр QPel формата : Нет
Параметр GMC формата : Без точки перехода
Параметр матрицы формата : Default (MPEG)
Идентификатор кодека : XVID
Идентификатор кодека/Подсказка : XviD
Продолжительность : 2 ч. 12 м.
Битрейт : 1779 Кбит/сек
Ширина : 720 пикселей
Высота : 304 пикселя
Соотношение сторон : 2,35:1
Частота кадров : 24,000 кадра/сек
Цветовое пространство : YUV
Субдискретизация насыщенности : 4:2:0
Битовая глубина : 8 бит
Тип развёртки : Прогрессивная
Метод сжатия : С потерями
Бит/(Пиксели*Кадры) : 0.339
Размер потока : 1,64 Гбайт (75%)
Библиотека кодирования : XviD 73
Аудио #1
Идентификатор : 1
Формат : AC-3
Формат/Информация : Audio Coding 3
Расширение режима : CM (complete main)
Параметр Endianness формата : Big
Идентификатор кодека : 2000
Продолжительность : 2 ч. 12 м.
Вид битрейта : Постоянный
Битрейт : 384 Кбит/сек
Каналы : 6 каналов
Расположение каналов : Front: L C R, Side: L R, LFE
Частота : 48,0 КГц
Битовая глубина : 16 бит
Метод сжатия : С потерями
Размер потока : 363 Мбайт (16%)
Выравнивание : Разделение по промежуткам
Продолжительность промежутка : 42 мс. (1,00 видеокадр)
Время предзагрузки промежутка : 500 мс.
Аудио #2
Идентификатор : 2
Формат : AC-3
Формат/Информация : Audio Coding 3
Расширение режима : CM (complete main)
Параметр Endianness формата : Big
Идентификатор кодека : 2000
Продолжительность : 2 ч. 12 м.
Вид битрейта : Постоянный
Битрейт : 192 Кбит/сек
Каналы : 2 канала
Расположение каналов : Front: L R
Частота : 48,0 КГц
Битовая глубина : 16 бит
Метод сжатия : С потерями
Размер потока : 181 Мбайт (8%)
Выравнивание : Разделение по промежуткам
Продолжительность промежутка : 42 мс. (1,00 видеокадр)
Время предзагрузки промежутка : 500 мс.

Скриншоты




Показать сообщения:    

Текущее время: 08-Дек 07:10

Часовой пояс: UTC + 3


Вы не можете начинать темы
Вы не можете отвечать на сообщения
Вы не можете редактировать свои сообщения
Вы не можете удалять свои сообщения
Вы не можете голосовать в опросах
Вы не можете прикреплять файлы к сообщениям
Вы не можете скачивать файлы