Олдбой / Старина / Oldeuboi / Oldboy / Old boy (Пак Чхан Ук / Chan-wook Park) [2003, Южная Корея, триллер, драма, детектив, HDRip] AVO (Визгунов) + DVO (Tycoon Studio)


 

[Цитировать]

Олдбой / Старина / Oldeuboi / Oldboy / Old boy Страна: Южная Корея
Жанр: триллер, драма, детектив
Год выпуска: 2003
Продолжительность: 01:59:56
Перевод 1: Авторский (одноголосый закадровый) Сергей Визгунов
Перевод 2: Профессиональный (двухголосый закадровый) Tycoon Studio присутствует ненорматив
Cубтитры: нет
Режиссер: Пак Чхан Ук / Chan-wook Park
В ролях: Мин-Сик Чои, Ю Чжи Тхэ, Хи-дженг Канг, Да-Хэн Джи, Дал-су Ох, Бйонг-Ок Ким, Сенг-Шин Ли, Джин-Сео Юн, Дае-Ён Ли
Описание: 1988 год. Обыкновенный и ничем не примечательный бизнесмен по имени О Дэ Су в день трёхлетия своей дочери по пути домой напивается, начинает хулиганить и закономерно попадает в полицейский участок. Из участка его под своё поручительство забирает друг детства по имени Чжу Хван. Пока Чжу Хван звонит домой жене незадачливого пьяницы, О Дэ Су пропадает. Неизвестные похищают его и помещают в камеру частной тюрьмы. Камера состоит из комнаты и санузла, в ней есть телевизор, но нет окон…

Качество видео: HDRip
Формат видео: AVI
Видео кодек: XviD
Аудио кодек: AC3
Видео: 704x304 (2.32:1), 23.976 fps, XviD build 50 ~1338 kbps avg, 0.26 bit/pixel
Аудио 1: 48 kHz, AC3 Dolby Digital, 2/0 (L,R) ch, ~192 kbps Визгунов
Аудио 2: 48 kHz, AC3 Dolby Digital, 2/0 (L,R) ch, ~192 kbps Tycoon

Спасибо

За дорогу Визгунова Glowamy, за дорогу Tycoon MАDHEAD

MediaInfo

Полное имя : Олдбой 2003.avi
Формат : AVI
Формат/Информация : Audio Video Interleave
Размер файла : 1,45 Гбайт
Продолжительность : 1 ч. 59 м.
Общий поток : 1737 Кбит/сек
Программа кодирования : VirtualDubMod 1.5.10.2 (build 2540/release)
Библиотека кодирования : VirtualDubMod build 2540/release
Видео
Идентификатор : 0
Формат : MPEG-4 Visual
Профиль формата : Advanced Simple@L5
Параметр BVOP формата : 1
Параметр QPel формата : Нет
Параметр GMC формата : Без точки перехода
Параметр матрицы формата : Default (MPEG)
Идентификатор кодека : XVID
Идентификатор кодека/Подсказка : XviD
Продолжительность : 1 ч. 59 м.
Битрейт : 1339 Кбит/сек
Ширина : 704 пикселя
Высота : 304 пикселя
Соотношение сторон : 2,35:1
Частота кадров : 23,976 кадра/сек
Цветовое пространство : YUV
Субдискретизация насыщенности : 4:2:0
Битовая глубина : 8 бит
Тип развёртки : Прогрессивная
Метод сжатия : С потерями
Бит/(Пиксели*Кадры) : 0.261
Размер потока : 1,12 Гбайт (77%)
Библиотека кодирования : XviD 1.2.1 (UTC 2008-12-04)
Аудио #1
Идентификатор : 1
Формат : AC-3
Формат/Информация : Audio Coding 3
Расширение режима : CM (complete main)
Параметр Endianness формата : Big
Идентификатор кодека : 2000
Продолжительность : 1 ч. 59 м.
Вид битрейта : Постоянный
Битрейт : 192 Кбит/сек
Каналы : 2 канала
Расположение каналов : Front: L R
Частота : 48,0 КГц
Битовая глубина : 16 бит
Метод сжатия : С потерями
Размер потока : 165 Мбайт (11%)
Выравнивание : Разделение по промежуткам
Продолжительность промежутка : 42 мс. (1,00 видеокадр)
Время предзагрузки промежутка : 500 мс.
Заголовок : Vizgunov
Аудио #2
Идентификатор : 2
Формат : AC-3
Формат/Информация : Audio Coding 3
Расширение режима : CM (complete main)
Параметр Endianness формата : Big
Идентификатор кодека : 2000
Продолжительность : 1 ч. 59 м.
Вид битрейта : Постоянный
Битрейт : 192 Кбит/сек
Каналы : 2 канала
Расположение каналов : Front: L R
Частота : 48,0 КГц
Битовая глубина : 16 бит
Метод сжатия : С потерями
Размер потока : 165 Мбайт (11%)
Выравнивание : Разделение по промежуткам
Продолжительность промежутка : 42 мс. (1,00 видеокадр)
Время предзагрузки промежутка : 500 мс.
Заголовок : Tycoon

Скриншоты




Показать сообщения:    

Текущее время: 08-Дек 21:10

Часовой пояс: UTC + 3


Вы не можете начинать темы
Вы не можете отвечать на сообщения
Вы не можете редактировать свои сообщения
Вы не можете удалять свои сообщения
Вы не можете голосовать в опросах
Вы не можете прикреплять файлы к сообщениям
Вы не можете скачивать файлы