Курица на ветру / A Hen in the Wind / Kaze no naka no mendori (Ясудзиро Одзу / Yasujiro Ozu) [1948, Япония, драма, DVDRip] DVO (Студия Лексикон) + Sub Rus, Eng + Original Jap


Статистика раздачи [Обновить пиров]
Размер:  1.43 GB   |    Зарегистрирован:  1 год 1 месяц   |    Скачан:  0 раз

Полного источника не было: Никогда

 
   
 
 
 

[Цитировать]

Курица на ветру / A Hen in the Wind / Kaze no naka no mendori
Страна: Япония
Студия: Shochiku Films Ltd.
Жанр: драма
Год выпуска: 1948
Продолжительность: 01:23:26
Перевод: Профессиональный (двухголосый закадровый) Студия Лексикон
Cубтитры: русские, английские
Оригинальная аудиодорожка: японский
Режиссер: Ясудзиро Одзу / Yasujiro Ozu
В ролях: Рёсуке Саито / Ryôsuke Saitô, Ясудзиро Одзу / Yasujiro Ozu
В ролях: Кинуё Танака, Сюдзи Сано, Тиэко Мурата, Тисю Рю, Хохи Аоки, Такэси Сакамото
Описание: Возвратившийся с войны мужчина узнает, что его жена была вынуждена заняться проституцией, чтобы оплатить больничные счета сына
II Сэмпл II IMDB II
Релиз группа:

Доп. информация:
За субтитры спасибо Langolyer
За исходник DVD и русскую дорогу спасибо G00ba
Качество видео: DVDRip
Формат видео: AVI
Видео: Xvid 624x464 (4:3) 23.976fps Bit rate 2060Kbps b/p 0.297
Аудио 1: АС3 48.0 KHz 2ch. 192kbps rus dvo
Аудио 2: АС3 48.0 KHz 2ch. 192kbps jap
Формат субтитров: softsub (SRT)

MediaInfo

Общее
Полное имя : E:\torrent\A.Hen.in.the.Wind.1948.DVDRip.avi
Формат : AVI
Формат/Информация : Audio Video Interleave
Размер файла : 1,43 Гбайт
Продолжительность : 1 ч. 23 м.
Общий поток : 2459 Кбит/сек
Программа кодирования : VirtualDubMod 1.5.10.3 (build 2550/release)
Библиотека кодирования : VirtualDubMod build 2550/release
Видео
Идентификатор : 0
Формат : MPEG-4 Visual
Профиль формата : Advanced Simple@L5
Параметр BVOP формата : 2
Параметр QPel формата : Нет
Параметр GMC формата : Без точки перехода
Параметр матрицы формата : Default (MPEG)
Идентификатор кодека : XVID
Идентификатор кодека/Подсказка : XviD
Продолжительность : 1 ч. 23 м.
Битрейт : 2060 Кбит/сек
Ширина : 624 пикселя
Высота : 464 пикселя
Соотношение сторон : 4:3
Частота кадров : 23,976 кадра/сек
Цветовое пространство : YUV
Субдискретизация насыщенности : 4:2:0
Битовая глубина : 8 бит
Тип развёртки : Прогрессивная
Метод сжатия : С потерями
Бит/(Пиксели*Кадры) : 0.297
Размер потока : 1,20 Гбайт (84%)
Библиотека кодирования : XviD 1.2.1 (UTC 2008-12-04)
Аудио #1
Идентификатор : 1
Формат : AC-3
Формат/Информация : Audio Coding 3
Расширение режима : CM (complete main)
Параметр Endianness формата : Big
Идентификатор кодека : 2000
Продолжительность : 1 ч. 23 м.
Вид битрейта : Постоянный
Битрейт : 192 Кбит/сек
Каналы : 2 канала
Расположение каналов : Front: L R
Частота : 48,0 КГц
Битовая глубина : 16 бит
Метод сжатия : С потерями
Размер потока : 115 Мбайт (8%)
Выравнивание : Разделение по промежуткам
Продолжительность промежутка : 42 мс. (1,00 видеокадр)
Время предзагрузки промежутка : 500 мс.
Аудио #2
Идентификатор : 2
Формат : AC-3
Формат/Информация : Audio Coding 3
Расширение режима : CM (complete main)
Параметр Endianness формата : Big
Идентификатор кодека : 2000
Продолжительность : 1 ч. 23 м.
Вид битрейта : Постоянный
Битрейт : 192 Кбит/сек
Каналы : 2 канала
Расположение каналов : Front: L R
Частота : 48,0 КГц
Битовая глубина : 16 бит
Метод сжатия : С потерями
Размер потока : 115 Мбайт (8%)
Выравнивание : Разделение по промежуткам
Продолжительность промежутка : 42 мс. (1,00 видеокадр)
Время предзагрузки промежутка : 500 мс.

Скриншот c названием фильма

Скриншоты


[teatrix.ru].t6043.torrent 
Торрент: Зарегистрирован [ 2015-10-10 09:49 ] · ADF5B4D8709D671CA0BFC2A0100C85B9D84B7213

Скачать .torrent

Скачать

15 KB

Статус: проверено
Скачан: 0 раз
Размер: 1.43 GB
terms.php



Быстрый ответ

Имя:

      
Для отправки сообщений необходимо включить JavaScript
Показать сообщения:    

Текущее время: 06-Дек 19:03

Часовой пояс: UTC + 3


Вы можете начинать темы
Вы можете отвечать на сообщения
Вы не можете редактировать свои сообщения
Вы не можете удалять свои сообщения
Вы не можете голосовать в опросах
Вы не можете прикреплять файлы к сообщениям
Вы можете скачивать файлы