Время прощания / Le Temps qui reste (Франсуа Озон / Francois Ozon) [2005, Франция, драма, DVDRip] MVO + Original Fre + Sub Rus


Статистика раздачи [Обновить пиров]
Размер:  1.56 GB   |    Зарегистрирован:  1 год 1 месяц   |    Скачан:  0 раз

Полного источника не было: Никогда

 
   
 
 
 

[Цитировать]

Время прощания / Le Temps qui reste- Страна: Франция
Год выпуска: 2005
Жанр: драма
Продолжительность: 01:17:37
Перевод: Профессиональный (многоголосый, закадровый)
Оригинальная аудиодорожка: французский
Cубтитры: русский (отдельно)
Режиссер: Франсуа Озон / Francois Ozon
В ролях: Мельвиль Пупо, Жанна Моро, Валерия Бруни Тедески, Даниэль Дюваль, Мари Ривьер и др.
Описание: Молодой успешный фотограф узнает, что он смертельно болен. Это известие заставляет его пересмотреть свою жизнь и отношения с близкими ему людьми — молодым любовником, сестрой, с которой они находятся в долгой затяжной ссоре, родителями. Он решается согласиться на странную просьбу незнакомых ему бездетных людей стать биологическим отцом их ребенка.
-Качество: DVDRip
Формат: AVI
Видео кодек: XviD
Аудио кодек: AC3
Видео: 720x304 (2.37:1), 25 fps, XviD build 73 ~2100 kbps avg, 0.38 bit/pixel
Аудио #1: 48 kHz, AC3 Dolby Digital, 3/2 (L,C,R,l,r) + LFE ch, ~384 kbps | MVO
Аудио #2: 48 kHz, AC3 Dolby Digital, 3/2 (L,C,R,l,r) + LFE ch, ~384 kbps | Original (отдельно)-

Скриншоты

MI

D:\Мои рипы\Le.Temps.qui.reste.2005.dvdrip.dexter_lex\Le.Temps.qui.reste.2005.dvdrip.dexter_lex.avi
  General
    Complete name : D:\Мои рипы\Le.Temps.qui.reste.2005.dvdrip.dexter_lex\Le.Temps.qui.reste.2005.dvdrip.dexter_lex.avi
    Format : AVI
    Format/Info : Audio Video Interleave
    File size : 1.35 GiB
    Duration : 1h 17mn
    Overall bit rate : 2 494 Kbps
    Writing application : VirtualDubMod 1.5.10.3 | www.virtualdub-fr.org || (build 2550/release)
    Writing library : VirtualDubMod build 2550/release
  Video #0
    ID : 0
    Format : MPEG-4 Visual
    Format profile : Advanced Simple@L5
    Format settings, BVOP : 1
    Format settings, QPel : No
    Format settings, GMC : No warppoints
    Format settings, Matrix : Custom
    Codec ID : XVID
    Codec ID/Hint : XviD
    Duration : 1h 17mn
    Bit rate : 2 100 Kbps
    Width : 720 pixels
    Height : 304 pixels
    Display aspect ratio : 2.35:1
    Frame rate : 25.000 fps
    Color space : YUV
    Chroma subsampling : 4:2:0
    Bit depth : 8 bits
    Scan type : Progressive
    Compression mode : Lossy
    Bits/(Pixel*Frame) : 0.384
    Stream size : 1.14 GiB (84%)
    Writing library : XviD 73
  Audio #1
    ID : 1
    Format : AC-3
    Format/Info : Audio Coding 3
    Mode extension : CM (complete main)
    Codec ID : 2000
    Duration : 1h 17mn
    Bit rate mode : Constant
    Bit rate : 384 Kbps
    Channel(s) : 6 channels
    Channel positions : Front: L C R, Side: L R, LFE
    Sampling rate : 48.0 KHz
    Bit depth : 16 bits
    Compression mode : Lossy
    Stream size : 213 MiB (15%)
    Alignment : Split accross interleaves
    Interleave, duration : 40 ms (1.00 video frame)
    Interleave, preload duration : 500 ms
[teatrix.ru].t6044.torrent 
Торрент: Зарегистрирован [ 2015-10-10 09:49 ] · E907963A4EE446658A1F902425AA52902FC238E0

Скачать .torrent

Скачать

16 KB

Статус: проверено
Скачан: 0 раз
Размер: 1.56 GB
terms.php



Быстрый ответ

Имя:

      
Для отправки сообщений необходимо включить JavaScript
Показать сообщения:    

Текущее время: 07-Дек 19:24

Часовой пояс: UTC + 3


Вы можете начинать темы
Вы можете отвечать на сообщения
Вы не можете редактировать свои сообщения
Вы не можете удалять свои сообщения
Вы не можете голосовать в опросах
Вы не можете прикреплять файлы к сообщениям
Вы можете скачивать файлы