Аттенберг / Attenberg (Афина Рахель Цангари / Athina Rachel Tsangari) [2010, Греция, драма, DVDRip-AVC] + original (gre) + Sub (rus, eng)


Статистика раздачи [Обновить пиров]
Размер:  1.45 GB   |    Зарегистрирован:  1 год 2 месяца   |    Скачан:  1 раз

Полного источника не было: 1 месяц 24 дня

 
   
 
 
 

[Цитировать]

Аттенберг / Attenberg
Страна: Греция
Жанр: драма
Год выпуска: 2010
Продолжительность: 01:32:51
Перевод: Субтитры (by elifas_levi)
Cубтитры: русские, английские
Оригинальная аудиодорожка: греческий
Навигация по главам: есть
Режиссер: Афина Рахель Цангари / Athina Rachel Tsangari
В ролях: Ариана Лабед (Marina), Гиоргос Латимос (Engineer), Вангелис Мурикис (Spyros), Евангелия Ранду (Bella)
О фильме: 26-летняя Марина живет с отцом-архитектором в типичном промышленном городке на берегу моря. Находя человеческие особи странными и отталкивающими, она держится от них подальше, и исследует окружающий мир через песни о суициде и "Жизнь млекопитающих" Дэвида Аттенборо. Заполнить пробелы в сексуальном образовании ей помогает ее единственная подруга Белла. Но однажды незнакомец предлагает девушке сразиться в настольный футбол. Тем временем ее отец начинает ритуальные приготовления к исходу из 20-го века, который считает "переоцененным". Разрываясь между двумя мужчинами и подругой, Марина продолжает своего исследование загадок человеческой фауны.
Доп. информация: http://www.imdb.com/title/tt1691323/
Участник основного конкурса Венецианского кинофестиваля 2010.
Кубок Вольпи за лучшую женскую роль.

Сэмпл: http://multi-up.com/1027736
Качество видео: DVDRip-AVC
Формат видео: MKV
Видео: x264, 716x564@1018x564 (16:9), 25 fps, ~1790 kbps avg, 0.17 bit/pixel
Аудио: 48 kHz, AC3 Dolby Digital, 3/2 (L,C,R,l,r) + LFE ch, ~448.00 kbps avg

MediaInfo

Общее
Уникальный идентификатор : 214739462173266146776390365972242133373 (0xA18D50E8444E01BD86C781448444717D)
Полное имя : E:\Фильмы\Аттенберг\Attenberg_2010.DVDRip-AVC.mkv
Формат : Matroska
Версия формата : Version 4 / Version 2
Размер файла : 1,45 Гбайт
Продолжительность : 1 ч. 32 м.
Общий поток : 2240 Кбит/сек
Название фильма : Attenberg (Athina Rachel Tsangari, 2010) DVDRip-AVC
Дата кодирования : UTC 2014-12-12 06:41:20
Программа кодирования : mkvmerge v6.1.0 ('Old Devil') built on Mar 4 2013 09:10:42
Библиотека кодирования : libebml v1.3.0 + libmatroska v1.4.0
Видео
Идентификатор : 1
Формат : AVC
Формат/Информация : Advanced Video Codec
Профиль формата : High@L4.1
Параметр CABAC формата : Да
Параметр ReFrames формата : 12 кадров
Идентификатор кодека : V_MPEG4/ISO/AVC
Продолжительность : 1 ч. 32 м.
Битрейт : 1790 Кбит/сек
Ширина : 716 пикселей
Высота : 564 пикселя
Соотношение сторон : 16:9
Соотношение сторон в оригинале : 16:9
Режим частоты кадров : Постоянный
Частота кадров : 25,000 кадров/сек
Цветовое пространство : YUV
Субдискретизация насыщенности : 4:2:0
Битовая глубина : 8 бит
Тип развёртки : Прогрессивная
Бит/(Пиксели*Кадры) : 0.177
Размер потока : 1,13 Гбайт (78%)
Библиотека кодирования : x264 core 142 r2491 24e4fed
Настройки программы : cabac=1 / ref=12 / deblock=1:0:0 / analyse=0x3:0x133 / me=umh / subme=10 / psy=1 / psy_rd=1.00:0.10 / mixed_ref=1 / me_range=32 / chroma_me=1 / trellis=2 / 8x8dct=1 / cqm=0 / deadzone=21,11 / fast_pskip=0 / chroma_qp_offset=-3 / threads=6 / lookahead_threads=1 / sliced_threads=0 / nr=0 / decimate=0 / interlaced=0 / bluray_compat=0 / constrained_intra=0 / bframes=12 / b_pyramid=2 / b_adapt=2 / b_bias=0 / direct=3 / weightb=1 / open_gop=0 / weightp=2 / keyint=250 / keyint_min=25 / scenecut=40 / intra_refresh=0 / rc=2pass / mbtree=0 / bitrate=1790 / ratetol=1.0 / qcomp=0.65 / qpmin=10 / qpmax=51 / qpstep=4 / cplxblur=20.0 / qblur=0.5 / ip_ratio=1.30 / pb_ratio=1.20 / aq=1:0.70 / zones=136995,139278,b=0.5
Язык : Greek
Default : Да
Forced : Нет
Коэффициенты матрицы : BT.601
colour_range : Limited
Аудио
Идентификатор : 2
Формат : AC-3
Формат/Информация : Audio Coding 3
Расширение режима : CM (complete main)
Параметр Endianness формата : Big
Идентификатор кодека : A_AC3
Продолжительность : 1 ч. 32 м.
Вид битрейта : Постоянный
Битрейт : 448 Кбит/сек
Каналы : 6 каналов
Расположение каналов : Front: L C R, Side: L R, LFE
Частота : 48,0 КГц
Битовая глубина : 16 бит
Метод сжатия : С потерями
Размер потока : 298 Мбайт (20%)
Заголовок : Original
Язык : Greek
Default : Да
Forced : Нет
Текст #1
Идентификатор : 3
Формат : UTF-8
Идентификатор кодека : S_TEXT/UTF8
Идентификатор кодека/Информация : UTF-8 Plain Text
Язык : Russian
Default : Да
Forced : Нет
Текст #2
Идентификатор : 4
Формат : UTF-8
Идентификатор кодека : S_TEXT/UTF8
Идентификатор кодека/Информация : UTF-8 Plain Text
Язык : English
Default : Нет
Forced : Нет
Меню
00:00:00.000 : en:Chapter 01
00:00:19.400 : en:Chapter 02
00:03:49.640 : en:Chapter 03
00:07:38.120 : en:Chapter 04
00:07:41.960 : en:Chapter 05
00:13:27.560 : en:Chapter 06
00:20:08.840 : en:Chapter 07
00:25:24.200 : en:Chapter 08
00:31:56.840 : en:Chapter 09
00:35:32.360 : en:Chapter 10
00:41:20.360 : en:Chapter 11
00:48:45.320 : en:Chapter 12
00:54:27.080 : en:Chapter 13
00:59:41.960 : en:Chapter 14
01:05:30.440 : en:Chapter 15
01:12:58.760 : en:Chapter 16
01:16:50.120 : en:Chapter 17
01:19:34.760 : en:Chapter 18
01:25:00.680 : en:Chapter 19
01:30:37.640 : en:Chapter 20

x264

x264 [info]: frame I:681 Avg QP:16.63 size: 49878
x264 [info]: frame P:25058 Avg QP:18.30 size: 19843
x264 [info]: frame B:113539 Avg QP:18.82 size: 6299
x264 [info]: consecutive B-frames: 0.7% 0.4% 2.0% 7.4% 13.0% 69.9% 4.0% 0.6% 0.2% 0.1% 0.0% 1.4% 0.3%
x264 [info]: mb I I16..4: 5.2% 75.9% 18.9%
x264 [info]: mb P I16..4: 0.6% 8.8% 1.2% P16..4: 42.9% 26.3% 17.6% 0.3% 0.1% skip: 2.3%
x264 [info]: mb B I16..4: 0.1% 0.9% 0.1% B16..8: 32.3% 9.6% 2.3% direct: 9.8% skip:44.9% L0:44.3% L1:43.4% BI:12.3%
x264 [info]: 8x8 transform intra:81.4% inter:62.8%
x264 [info]: direct mvs spatial:98.9% temporal:1.1%
x264 [info]: coded y,uvDC,uvAC intra: 89.1% 84.5% 61.2% inter: 29.4% 32.8% 16.7%
x264 [info]: i16 v,h,dc,p: 38% 9% 10% 44%
x264 [info]: i8 v,h,dc,ddl,ddr,vr,hd,vl,hu: 16% 9% 8% 8% 11% 13% 11% 12% 12%
x264 [info]: i4 v,h,dc,ddl,ddr,vr,hd,vl,hu: 37% 8% 4% 6% 9% 11% 9% 8% 8%
x264 [info]: i8c dc,h,v,p: 41% 22% 24% 14%
x264 [info]: Weighted P-Frames: Y:5.1% UV:2.5%
x264 [info]: ref P L0: 35.8% 12.6% 14.9% 8.1% 6.4% 5.4% 4.8% 3.1% 2.7% 2.4% 2.0% 1.6% 0.1% 0.0%
x264 [info]: ref B L0: 69.4% 12.1% 5.2% 3.1% 2.6% 2.2% 1.9% 1.3% 1.1% 0.7% 0.4%
x264 [info]: ref B L1: 95.1% 4.9%

Скриншоты


[teatrix.ru].t6045.torrent 
Торрент: Зарегистрирован [ 2015-10-10 09:49 ] · 20B32CE014437B09B0B2F513B2F3C11DAF2882E5

Скачать .torrent

Скачать

15 KB

Статус: проверено
Скачан: 1 раз
Размер: 1.45 GB
terms.php



Быстрый ответ

Имя:

      
Для отправки сообщений необходимо включить JavaScript
Показать сообщения:    

Текущее время: 11-Дек 05:19

Часовой пояс: UTC + 3


Вы можете начинать темы
Вы можете отвечать на сообщения
Вы не можете редактировать свои сообщения
Вы не можете удалять свои сообщения
Вы не можете голосовать в опросах
Вы не можете прикреплять файлы к сообщениям
Вы можете скачивать файлы