Giuseppe Verdi - Il Trovatore / Джузеппе Верди - Трубадур (David McVicar; Marco Armiliato; Anna Netrebko/Анна Нетребко, Dolora Zajick, Dmitri Hvorostovsky/Дмитрий Хворостовский, Yonghoon Lee, Stefan Kocan) [2015, opera, HDTVRip]


 

[Цитировать]

Giuseppe Verdi - Il Trovatore / Джузеппе Верди - Трубадур
Год выпуска: 2015
Лейбл: Live in HD
Страна-производитель: CША
Жанр: opera
Продолжительность: 02:56:35
Язык: итальянский
Субтитры: Eng, Fre, Ger, Ita, Spa, Por, Rus, Swe
Режиссер: David McVicar
Дирижер: Marco Armiliato
Исполнители:
Leonora - Anna Netrebko, - Все релизы с ее участием
Azucena - Dolora Zajick,
Il Conte di Luna - Dmitri Hvorostovsky, - Все релизы с его участием
Manrico - Yonghoon Lee,
Ferrando - Štefan Kocán,
Ines - Maria Zifchak,
Gypsy - Edward Albert,
Messenger - David Lowe,
Ruiz - Raúl Melo.
Качество видео: HDTVRip
Формат/Контейнер: MKV
Видео кодек: H.264
Аудио кодек: AC3
Видео поток: 960x540, 1354 Kbps, 25fps
Аудио поток: AC-3, 448 kbps, 48 khz, 6 ch

MI

Format : Matroska
Format version : Version 2
File size : 990 MiB
Duration : 1h 15mn
Overall bit rate : 1 839 Kbps
Encoded date : UTC 2015-10-09 20:01:40
Writing application : mkvmerge v5.8.0 ('No Sleep / Pillow') built on Sep 2 2012 15:37:04
Writing library : libebml v1.2.3 + libmatroska v1.3.0
Video
ID : 1
Format : AVC
Format/Info : Advanced Video Codec
Format profile : High@L4.1
Format settings, CABAC : Yes
Format settings, ReFrames : 8 frames
Codec ID : V_MPEG4/ISO/AVC
Duration : 1h 15mn
Bit rate : 1 354 Kbps
Width : 960 pixels
Height : 540 pixels
Display aspect ratio : 16:9
Frame rate mode : Constant
Frame rate : 25.000 fps
Color space : YUV
Chroma subsampling : 4:2:0
Bit depth : 8 bits
Scan type : Progressive
Bits/(Pixel*Frame) : 0.104
Stream size : 729 MiB (74%)
Writing library : x264 core 125 r2208 d9d2288
Encoding settings : cabac=1 / ref=8 / deblock=1:-1:-1 / analyse=0x3:0x133 / me=umh / subme=9 / psy=1 / psy_rd=1.00:0.10 / mixed_ref=1 / me_range=24 / chroma_me=1 / trellis=2 / 8x8dct=1 / cqm=0 / deadzone=21,11 / fast_pskip=1 / chroma_qp_offset=-3 / threads=6 / lookahead_threads=1 / sliced_threads=0 / nr=0 / decimate=1 / interlaced=0 / bluray_compat=0 / constrained_intra=0 / bframes=3 / b_pyramid=2 / b_adapt=2 / b_bias=0 / direct=1 / weightb=1 / open_gop=0 / weightp=2 / keyint=250 / keyint_min=25 / scenecut=40 / intra_refresh=0 / rc_lookahead=60 / rc=crf / mbtree=1 / crf=19.0 / qcomp=0.60 / qpmin=0 / qpmax=69 / qpstep=4 / ip_ratio=1.40 / aq=1:1.00
Default : Yes
Forced : No
Audio
ID : 2
Format : AC-3
Format/Info : Audio Coding 3
Mode extension : CM (complete main)
Format settings, Endianness : Big
Codec ID : A_AC3
Duration : 1h 15mn
Bit rate mode : Constant
Bit rate : 448 Kbps
Channel(s) : 6 channels
Channel positions : Front: L C R, Side: L R, LFE
Sampling rate : 48.0 KHz
Bit depth : 16 bits
Compression mode : Lossy
Delay relative to video : 500ms
Stream size : 241 MiB (24%)
Language : Italian
Default : Yes
Forced : No

Скриншоты




Показать сообщения:    

Текущее время: 04-Дек 04:57

Часовой пояс: UTC + 3


Вы не можете начинать темы
Вы не можете отвечать на сообщения
Вы не можете редактировать свои сообщения
Вы не можете удалять свои сообщения
Вы не можете голосовать в опросах
Вы не можете прикреплять файлы к сообщениям
Вы не можете скачивать файлы