Ludwig van Beethoven (Людвиг ван Бетховен) - Klavierkonzert Nr. 3; Robert Schumann - Klavierkonzert (Orchestra Ensemble Kanazawa, Michiyoshi Inoue, Aldo Ciccolini) Festival International de Piano de La Roque d'Antheron [2011, Classical / Orches


 

[Цитировать]

Ludwig van Beethoven - Klavierkonzert Nr. 3 c-Moll Op. 37
Robert Schumann - Klavierkonzert a-Moll Op. 54

Orchestra Ensemble Kanazawa • Michiyoshi Inoue • Aldo Ciccolini

-
Год выпуска: 2011
Лейбл: CLC Productions - ARTE France
Жанр: Classical / Orchestral
Продолжительность: 01:09:57
Режиссер: François-René Martin
Исполнители:
Aldo Ciccolini - piano
Orchestra Ensemble Kanazawa
Michiyoshi Inoue - direction musicale
Треклист:
Ludwig van Beethoven
- Klavierkonzert Nr. 3 c-Moll Op. 37
Robert Schumann
- Klavierkonzert a-Moll Op. 54
Доп. информация:
Enregistré au parc du Château de Florans La Roque d'Anthéron, France
Festival International de Piano de La Roque d'Anthéron

Aldo Ciccolini interprète Beethoven et Schumann arte.tv
Aldo Ciccolini from Wikipedia, the free encyclopedia
Aldo Ciccolini, pianist - obituary telegraph.co.uk
Michiyoshi Inoue Official Site
Orchestra Ensemble Kanazawa from Wikipedia, the free encyclopedia
Качество видео: HDTV 720p
Контейнер: TS
Видео кодек: H.264
Аудио кодек: AC3
Видео поток: Overall bit rate: 10.7 Mbps, 1280*720 (16:9), at 50.000 fps, AVC (High@L4.0) (CABAC / 4 Ref Frames)
Аудио поток: German, 192 Kbps, 48.0 KHz, 2 channels, MPEG Audio (Version 1) (Layer 2)
Аудио 2: French, 192 Kbps, 48.0 KHz, 2 channels, MPEG Audio (Version 1) (Layer 2)
Аудио 3: Multiple languages, 448 Kbps, 48.0 KHz, 16 bits, 6 channels, AC-3
Аудио 4: 192 Kbps, 48.0 KHz, 2 channels, MPEG Audio (Version 1) (Layer 2)
Источник: Digital Satellite > SkyStar HD2 (TechniSat) > raw data to HDD > Cypheros TS-Doctor > Smart Cutter (cut) > ts

MediaInfo

GeneralID : 8900 (0x22C4)Complete name : C:\rutracker.org_HD\arte HD_Beethoven, Schumann (Michiyoshi Inoue, Aldo Ciccolini) 2011.tsFormat : MPEG-TSFile size : 5.22 GiBDuration : 1h 9mnOverall bit rate mode : VariableOverall bit rate : 10.7 Mbps
VideoID : 5111 (0x13F7)Menu ID : 10302 (0x283E)Format : AVCFormat/Info : Advanced Video CodecFormat profile : High@L4.0Format settings, CABAC : YesFormat settings, ReFrames : 4 framesCodec ID : 27Duration : 1h 9mnBit rate : 9 111 KbpsWidth : 1 280 pixelsHeight : 720 pixelsDisplay aspect ratio : 16:9Frame rate : 50.000 fpsColor space : YUVChroma subsampling : 4:2:0Bit depth : 8 bitsScan type : ProgressiveBits/(Pixel*Frame) : 0.198Stream size : 4.45 GiB (85%)
Audio #1ID : 5112 (0x13F8)Menu ID : 10302 (0x283E)Format : MPEG AudioFormat version : Version 1Format profile : Layer 2Codec ID : 3Duration : 1h 9mnBit rate mode : ConstantBit rate : 192 KbpsChannel(s) : 2 channelsSampling rate : 48.0 KHzCompression mode : LossyDelay relative to video : -14msStream size : 96.1 MiB (2%)Language : German
Audio #2ID : 5113 (0x13F9)Menu ID : 10302 (0x283E)Format : MPEG AudioFormat version : Version 1Format profile : Layer 2Codec ID : 3Duration : 1h 9mnBit rate mode : ConstantBit rate : 192 KbpsChannel(s) : 2 channelsSampling rate : 48.0 KHzCompression mode : LossyDelay relative to video : -14msStream size : 96.1 MiB (2%)Language : French
Audio #3ID : 5116 (0x13FC)Menu ID : 10302 (0x283E)Format : AC-3Format/Info : Audio Coding 3Mode extension : CM (complete main)Format settings, Endianness : BigCodec ID : 6Duration : 1h 9mnBit rate mode : ConstantBit rate : 448 KbpsChannel(s) : 6 channelsChannel positions : Front: L C R, Side: L R, LFESampling rate : 48.0 KHzBit depth : 16 bitsCompression mode : LossyDelay relative to video : -2msStream size : 224 MiB (4%)Language : Multiple languages
Audio #4ID : 5117 (0x13FD)Menu ID : 10302 (0x283E)Format : MPEG AudioFormat version : Version 1Format profile : Layer 2Codec ID : 3Duration : 1h 9mnBit rate mode : ConstantBit rate : 192 KbpsChannel(s) : 2 channelsSampling rate : 48.0 KHzCompression mode : LossyDelay relative to video : -2msStream size : 96.1 MiB (2%)



Показать сообщения:    

Текущее время: 18-Янв 02:34

Часовой пояс: UTC + 3


Вы не можете начинать темы
Вы не можете отвечать на сообщения
Вы не можете редактировать свои сообщения
Вы не можете удалять свои сообщения
Вы не можете голосовать в опросах
Вы не можете прикреплять файлы к сообщениям
Вы не можете скачивать файлы