Gustav Mahler (Густав Малер)- Symphony No. 2 (Munchner Philharmoniker, Валерий Гергиев (Valery Gergiev), Anne Schwanewilms, Ольга Бородина (Olga Borodina)) [2015, Classical / Orchestral, HDTV 720p]


 

[Цитировать]

Gustav Mahler
Sinfonie Nr. 2 c-Moll "Auferstehungs-Sinfonie"

Münchner Philharmoniker • Valery Gergiev

-
Год выпуска: 2015
Лейбл: ZDF
Жанр: Classical / Orchestral
Продолжительность: 01:29:57
Язык: немецкий
Субтитры: немецкий яз. (неотключаемые)
Режиссер: Michael Beyer
Исполнители:
Anne Schwanewilms - sopran
Olga Borodina - alt
Philharmonischer Chor München - chor
Münchner Philharmoniker - orchester
Valery Gergiev - musikalische leitung
Треклист:
Gustav Mahler - Sinfonie Nr. 2 c-Moll "Auferstehungs-Sinfonie"
Доп. информация:
Am 17. September 2015 gibt Gergiev sein offizielles Antrittskonzert als Chefdirigent der Münchner Philharmoniker
Valery Gergiev und die Münchner Philharmoniker - Das Antrittskonzert 3sat.de
Münchner Philharmoniker Official Site
Валерий Гергиев Официальный сайт
Valery Gergiev from Wikipedia, the free encyclopedia
Качество видео: HDTV 720p
Контейнер: TS
Видео кодек: H.264
Аудио кодек: AC3
Видео поток: Overall bit rate: 14.0 Mbps, 1280*720 (16:9), at 50.000 fps, AVC (High@L4.0) (CABAC / 6 Ref Frames)
Аудио поток: German, 256 Kbps, 48.0 KHz, 2 channels, MPEG Audio (Version 1) (Layer 2)
Аудио 2: 192 Kbps, 48.0 KHz, 2 channels, MPEG Audio (Version 1) (Layer 2)
Аудио 3: German, 448 Kbps, 48.0 KHz, 16 bits, 6 channels, AC-3
Аудио 4: Multiple languages, 192 Kbps, 48.0 KHz, 2 channels, MPEG Audio (Version 1) (Layer 2)
Источник: Digital Satellite > SkyStar HD2 (TechniSat) > raw data to HDD > Cypheros TS-Doctor > Smart Cutter (cut) > ts

MediaInfo

GeneralID : 8900 (0x22C4)Complete name : C:\rutracker.org_HD\3sat HD_Mahler, Sinfonie Nr. 2 (Munchner Philharmoniker, Valery Gergiev) 2015.tsFormat : MPEG-TSFile size : 8.82 GiBDuration : 1h 29mnOverall bit rate mode : VariableOverall bit rate : 14.0 Mbps
VideoID : 6510 (0x196E)Menu ID : 11150 (0x2B8E)Format : AVCFormat/Info : Advanced Video CodecFormat profile : High@L4.0Format settings, CABAC : YesFormat settings, ReFrames : 6 framesCodec ID : 27Duration : 1h 29mnBit rate : 12.2 MbpsWidth : 1 280 pixelsHeight : 720 pixelsDisplay aspect ratio : 16:9Frame rate : 50.000 fpsColor space : YUVChroma subsampling : 4:2:0Bit depth : 8 bitsScan type : ProgressiveBits/(Pixel*Frame) : 0.266Stream size : 7.69 GiB (87%)Color primaries : BT.709Transfer characteristics : BT.709Matrix coefficients : BT.709
Audio #1ID : 6520 (0x1978)Menu ID : 11150 (0x2B8E)Format : MPEG AudioFormat version : Version 1Format profile : Layer 2Codec ID : 3Duration : 1h 29mnBit rate mode : ConstantBit rate : 256 KbpsChannel(s) : 2 channelsSampling rate : 48.0 KHzCompression mode : LossyDelay relative to video : -13msStream size : 165 MiB (2%)Language : German
Audio #2ID : 6521 (0x1979)Menu ID : 11150 (0x2B8E)Format : MPEG AudioFormat version : Version 1Format profile : Layer 2Codec ID : 3Duration : 1h 29mnBit rate mode : ConstantBit rate : 192 KbpsChannel(s) : 2 channelsSampling rate : 48.0 KHzCompression mode : LossyDelay relative to video : -13msStream size : 124 MiB (1%)
Audio #3ID : 6522 (0x197A)Menu ID : 11150 (0x2B8E)Format : AC-3Format/Info : Audio Coding 3Mode extension : CM (complete main)Format settings, Endianness : BigCodec ID : 6Duration : 1h 29mnBit rate mode : ConstantBit rate : 448 KbpsChannel(s) : 6 channelsChannel positions : Front: L C R, Side: L R, LFESampling rate : 48.0 KHzBit depth : 16 bitsCompression mode : LossyDelay relative to video : -12msStream size : 288 MiB (3%)Language : German
Audio #4ID : 6523 (0x197B)Menu ID : 11150 (0x2B8E)Format : MPEG AudioFormat version : Version 1Format profile : Layer 2Codec ID : 3Duration : 1h 29mnBit rate mode : ConstantBit rate : 192 KbpsChannel(s) : 2 channelsSampling rate : 48.0 KHzCompression mode : LossyDelay relative to video : -5msStream size : 124 MiB (1%)Language : Multiple languages
... info ...">

Скриншоты ... info ...


Valery Gergiev und die Münchner Philharmoniker - Das Antrittskonzert
Gustav Mahler: Sinfonie Nr. 2 c-Moll "Auferstehungs-Sinfonie"
Der russische Stardirigent Valery Gergiev wird ab der Saison 2015/2016 Chef der Münchner Philharmoniker und erhält damit einen der begehrtesten Dirigentenposten der Welt.
Valery Gergiev leitet als Direktor seit über 20 Jahren das legendäre Mariinski-Theater in St. Petersburg. Darüber hinaus ist er seit 2007 Chefdirigent des London Symphony Orchestra und Leiter des 1995 von Georg Solti gegründeten World Orchestra for Peace. Er ist Initiator und Künstlerischer Leiter der "Stars of the White Nights" und des "New Horizons Festival" in St. Petersburg, des Moskauer Osterfestivals u.v.a.m.
Auftakt nach Maß
Am 17. September 2015 gibt Gergiev sein offizielles Antrittskonzert als Chefdirigent der Münchner Philharmoniker. Für diesen besonderen Anlass hat er sich ein herausragendes Werk der Musikgeschichte ausgesucht, das bis heute nichts von seiner Faszination verloren hat: Gustav Mahlers Sinfonie Nr. 2.
Die "Zweite", nach dem Text des letzten Satzes auch „Auferstehungs-Sinfonie“ genannt, wurde 1895 vom Komponisten selber in Berlin uraufgeführt. In seiner Dynamik und berauschenden Orchestrierung mit Solisten und Chor sucht das Werk seinesgleichen. Für Valery Gergiev und die Münchner Philharmoniker ist es ein Auftakt nach Maß und musikalisches Statement zugleich.
~ 3sat.de



Показать сообщения:    

Текущее время: 11-Дек 03:22

Часовой пояс: UTC + 3


Вы не можете начинать темы
Вы не можете отвечать на сообщения
Вы не можете редактировать свои сообщения
Вы не можете удалять свои сообщения
Вы не можете голосовать в опросах
Вы не можете прикреплять файлы к сообщениям
Вы не можете скачивать файлы