Сергей Рахманинов (Sergei Rachmaninoff) - Piano Concerto No. 2; Handel (Гендель) - Menuet aus der Suite (Filarmonica Teatro Regio Torino, Gianandrea Noseda, Khatia Buniatishvili) [2015, Classical / Orchestral, HDTV 720p] arte


 

[Цитировать]

Sergei Rachmaninow
2. Klavierkonzert in C-moll, op. 18

Filarmonica Teatro Regio Torino • Gianandrea Noseda • Khatia Buniatishvili

-
Год выпуска: 2015
Лейбл: ARTE France
Жанр: Classical / Orchestral
Продолжительность: 00:40:58
Режиссер: Sébastien Glas
Исполнители:
Filarmonica Teatro Regio Torino
Gianandrea Noseda - direction
Khatia Buniatishvili - piano
Треклист:
Sergei Rachmaninow
- 2. Klavierkonzert in C-moll, op. 18
Georg Friedrich Händel
- Menuet aus der Suite in B-Dur HWV 434
Доп. информация:
Festival de Pâques à Aix-en-Provence, le 11 avril 2015, Grand Théâtre de Provence
Khatia Buniatishvili joue Rachmaninov arte.tv
Khatia Buniatishvili Official Site
Khatia Buniatishvili from Wikipedia, the free encyclopedia
Качество видео: HDTV 720p
Контейнер: TS
Видео кодек: H.264
Аудио кодек: AC3
Видео поток: Overall bit rate: 8 481 Kbps, 1280*720 (16:9), at 50.000 fps, AVC (High@L4.0) (CABAC / 4 Ref Frames)
Аудио поток: German, 192 Kbps, 48.0 KHz, 2 channels, MPEG Audio (Version 1) (Layer 2)
Аудио 2: French, 192 Kbps, 48.0 KHz, 2 channels, MPEG Audio (Version 1) (Layer 2)
Аудио 3: Multiple languages, 448 Kbps, 48.0 KHz, 16 bits, 6 channels, AC-3
Аудио 4: 192 Kbps, 48.0 KHz, 2 channels, MPEG Audio (Version 1) (Layer 2)
Источник: Digital Satellite > SkyStar HD2 (TechniSat) > raw data to HDD > Cypheros TS-Doctor > Smart Cutter (cut) > ts

MediaInfo

GeneralID : 8900 (0x22C4)Complete name : C:\rutracker.org_HD\arte HD_Rachmaninoff, Piano Concerto No. 2 (Gianandrea Noseda, Khatia Buniatishvili) 2015.tsFormat : MPEG-TSFile size : 2.43 GiBDuration : 40mn 58sOverall bit rate mode : VariableOverall bit rate : 8 481 Kbps
VideoID : 5111 (0x13F7)Menu ID : 10302 (0x283E)Format : AVCFormat/Info : Advanced Video CodecFormat profile : High@L4.0Format settings, CABAC : YesFormat settings, ReFrames : 4 framesCodec ID : 27Duration : 40mn 58sBit rate : 7 027 KbpsWidth : 1 280 pixelsHeight : 720 pixelsDisplay aspect ratio : 16:9Frame rate : 50.000 fpsColor space : YUVChroma subsampling : 4:2:0Bit depth : 8 bitsScan type : ProgressiveBits/(Pixel*Frame) : 0.152Stream size : 2.01 GiB (83%)
Audio #1ID : 5112 (0x13F8)Menu ID : 10302 (0x283E)Format : MPEG AudioFormat version : Version 1Format profile : Layer 2Codec ID : 3Duration : 40mn 58sBit rate mode : ConstantBit rate : 192 KbpsChannel(s) : 2 channelsSampling rate : 48.0 KHzCompression mode : LossyDelay relative to video : -11msStream size : 56.3 MiB (2%)Language : German
Audio #2ID : 5113 (0x13F9)Menu ID : 10302 (0x283E)Format : MPEG AudioFormat version : Version 1Format profile : Layer 2Codec ID : 3Duration : 40mn 58sBit rate mode : ConstantBit rate : 192 KbpsChannel(s) : 2 channelsSampling rate : 48.0 KHzCompression mode : LossyDelay relative to video : -11msStream size : 56.3 MiB (2%)Language : French
Audio #3ID : 5116 (0x13FC)Menu ID : 10302 (0x283E)Format : AC-3Format/Info : Audio Coding 3Mode extension : CM (complete main)Format settings, Endianness : BigCodec ID : 6Duration : 40mn 58sBit rate mode : ConstantBit rate : 448 KbpsChannel(s) : 6 channelsChannel positions : Front: L C R, Side: L R, LFESampling rate : 48.0 KHzBit depth : 16 bitsCompression mode : LossyDelay relative to video : -30msStream size : 131 MiB (5%)Language : Multiple languages
Audio #4ID : 5117 (0x13FD)Menu ID : 10302 (0x283E)Format : MPEG AudioFormat version : Version 1Format profile : Layer 2Codec ID : 3Duration : 40mn 58sBit rate mode : ConstantBit rate : 192 KbpsChannel(s) : 2 channelsSampling rate : 48.0 KHzCompression mode : LossyStream size : 56.3 MiB (2%)
... info ...">

Скриншоты ... info ...


La pianiste géorgienne Khatia Buniatishvili interprète le "Concerto pour piano n°2 en do mineur" de Rachmaninov, dans le cadre du Festival de Pâques à Aix-en-Provence.
Le 11 avril 2015, au Grand Théâtre de Provence, le Filarmonica Teatro Regio Torino s'est produit sous la direction de Gianandrea Noseda, avec l'éblouissante Géorgienne Khatia Buniatishvili au piano, dans le cadre du troisième Festival de Pâques. Le Concerto pour piano n° 2 en do mineur de Rachmaninov paraît taillé sur mesure pour le maestro milanais, le plus russe des chefs italiens. L’occasion de découvrir l’un des plus prestigieux orchestres de la péninsule et de retrouver la comète Khatia Buniatishvili, pianiste pleine de lyrisme, de puissance mais aussi d’une douce fragilité, grande admiratrice du compositeur.
~ arte.tv/guide



Показать сообщения:    

Текущее время: 06-Дек 22:52

Часовой пояс: UTC + 3


Вы не можете начинать темы
Вы не можете отвечать на сообщения
Вы не можете редактировать свои сообщения
Вы не можете удалять свои сообщения
Вы не можете голосовать в опросах
Вы не можете прикреплять файлы к сообщениям
Вы не можете скачивать файлы