Johannes Brahms - Violin Concerto op. 77 (Symphonieorchester des Bayerischen Rundfunks, Mariss Jansons, Frank Peter Zimmermann) [2015, Classical / Orchestral / Violin, HDTV 720p]


 

[Цитировать]

Johannes Brahms
Violinkonzert D-Dur op. 77

Symphonieorchester des Bayerischen Rundfunks • Mariss Jansons
Frank Peter Zimmermann

-
Год выпуска: 2015
Лейбл: Bayerischer Rundfunk
Жанр: Classical / Orchestral / Violin
Продолжительность: 00:41:48
Режиссер: Michael Beyer
Исполнители:
Frank Peter Zimmermann - violine
Symphonieorchester des Bayerischen Rundfunks
Mariss Jansons - dirigiert
Треклист:
Johannes Brahms - Violinkonzert D-Dur op. 77
Доп. информация:
Münchner Philharmonie, 17. April 2015
Frank Peter Zimmermann und das Symphonieorchester des Bayerischen Rundfunks arte.tv
Frank Peter Zimmermann from Wikipedia, the free encyclopedia
Mariss Jansons from Wikipedia, the free encyclopedia
Марис Арвидович Янсонс материал из Википедии - свободной энциклопедии
Качество видео: HDTV 720p
Контейнер: TS
Видео кодек: H.264
Аудио кодек: AC3
Видео поток: Overall bit rate: 13.1 Mbps, 1280*720 (16:9), at 50.000 fps, AVC (High@L4.0) (CABAC / 4 Ref Frames)
Аудио поток: German, 192 Kbps, 48.0 KHz, 2 channels, MPEG Audio (Version 1) (Layer 2)
Аудио 2: French, 192 Kbps, 48.0 KHz, 2 channels, MPEG Audio (Version 1) (Layer 2)
Аудио 3: Multiple languages, 448 Kbps, 48.0 KHz, 16 bits, 6 channels, AC-3
Аудио 4: 192 Kbps, 48.0 KHz, 2 channels, MPEG Audio (Version 1) (Layer 2)
Источник: Digital Satellite > SkyStar HD2 (TechniSat) > raw data to HDD > Cypheros TS-Doctor > Smart Cutter (cut) > ts

MediaInfo

GeneralID : 8900 (0x22C4)Complete name : C:\rutracker.org_HD\arte HD_Brahms, Violinkonzert (Mariss Jansons, Frank Peter Zimmermann) 2015.tsFormat : MPEG-TSFile size : 3.82 GiBDuration : 41mn 48sOverall bit rate mode : VariableOverall bit rate : 13.1 Mbps
VideoID : 5111 (0x13F7)Menu ID : 10302 (0x283E)Format : AVCFormat/Info : Advanced Video CodecFormat profile : High@L4.0Format settings, CABAC : YesFormat settings, ReFrames : 4 framesFormat settings, GOP : M=8, N=32Codec ID : 27Duration : 41mn 48sBit rate : 11.4 MbpsWidth : 1 280 pixelsHeight : 720 pixelsDisplay aspect ratio : 16:9Frame rate : 50.000 fpsColor space : YUVChroma subsampling : 4:2:0Bit depth : 8 bitsScan type : ProgressiveBits/(Pixel*Frame) : 0.248Stream size : 3.33 GiB (87%)
Audio #1ID : 5112 (0x13F8)Menu ID : 10302 (0x283E)Format : MPEG AudioFormat version : Version 1Format profile : Layer 2Codec ID : 3Duration : 41mn 48sBit rate mode : ConstantBit rate : 192 KbpsChannel(s) : 2 channelsSampling rate : 48.0 KHzCompression mode : LossyDelay relative to video : -14msStream size : 57.4 MiB (1%)Language : German
Audio #2ID : 5113 (0x13F9)Menu ID : 10302 (0x283E)Format : MPEG AudioFormat version : Version 1Format profile : Layer 2Codec ID : 3Duration : 41mn 48sBit rate mode : ConstantBit rate : 192 KbpsChannel(s) : 2 channelsSampling rate : 48.0 KHzCompression mode : LossyDelay relative to video : -14msStream size : 57.4 MiB (1%)Language : French
Audio #3ID : 5116 (0x13FC)Menu ID : 10302 (0x283E)Format : AC-3Format/Info : Audio Coding 3Mode extension : CM (complete main)Format settings, Endianness : BigCodec ID : 6Duration : 41mn 48sBit rate mode : ConstantBit rate : 448 KbpsChannel(s) : 6 channelsChannel positions : Front: L C R, Side: L R, LFESampling rate : 48.0 KHzBit depth : 16 bitsCompression mode : LossyDelay relative to video : -7msStream size : 134 MiB (3%)Language : Multiple languages
Audio #4ID : 5117 (0x13FD)Menu ID : 10302 (0x283E)Format : MPEG AudioFormat version : Version 1Format profile : Layer 2Codec ID : 3Duration : 41mn 48sBit rate mode : ConstantBit rate : 192 KbpsChannel(s) : 2 channelsSampling rate : 48.0 KHzCompression mode : LossyDelay relative to video : -2msStream size : 57.4 MiB (1%)

Скриншоты

... info ..."]
Johannes Brahms Violinkonzert D-Dur op. 77 ist das Violinkonzert der zweiten Hälfte des 19. Jahrhunderts. Am 17. April 2015 spielten Frank Peter Zimmermann und das Symphonieorchester des Bayerischen Rundfunks das Werk unter der Leitung von Chefdirigent Mariss Jansons in der Münchner Philharmonie im Gasteig.
Sich im symphonischen Gewebe des Violinkonzerts von Johannes Brahms gegen das große Orchester zu behaupten, sei nicht immer einfach, oft auch ein Kampf, sagt Frank Peter Zimmermann, einer der bedeutendsten Violinisten unserer Zeit. Aber genau darin liegt auch ein Reiz des Stückes, im gegenseitigen Geben und Nehmen, Zuhören und Vorantreiben.
So war es am 17. April 2015 mit Zimmermann und dem Symphonieorchester des Bayerischen Rundfunks unter der Leitung von Chefdirigent Mariss Jansons zu erleben. In der Münchner Philharmonie im Gasteig brillierte der Solist, schwang sich gemeinsam mit dem Orchester in immer neue Höhen auf oder ließ sich lauschend auf die Szenerie ein, so zum Beispiel bei der Oboen-Einleitung des zweiten Satzes, für Zimmermann immer aufs Neue eine Stelle „zum Niederknien“.
Das Violinkonzert D-Dur op. 77 von Johannes Brahms wäre sicherlich undenkbar ohne den großen Vorgänger, das Violinkonzert von Beethoven, ist aber seinerseits Vorbild für eine ganze Reihe symphonisch angelegter Violinkonzerte der Spätromantik und des beginnenden 20. Jahrhunderts. Es markiert eine ganz andere Tradition als die Werke von Geigenakrobaten wie Niccolò Paganini, Henryk Wieniawski oder Henri Vieuxtemps.
Der erste Satz ist einer der längsten Eröffnungssätze der Violinliteratur. Das Werk strotzt vor technischen Schwierigkeiten, die schon Joseph Joachim, Geigenlegende und enger Freund von Brahms, bedenklich stimmten. Joachim war es, der das Konzert uraufführte und die von ihm komponierte Solokadenz zum ersten Satz wurde fast schon zum Standard für dieses Werk. Diese Kadenz wählte auch Frank Peter Zimmermann für seine Aufführung mit dem Symphonieorchester des Bayerischen Rundfunks.
~ arte.tv/guide



Показать сообщения:    

Текущее время: 11-Дек 03:16

Часовой пояс: UTC + 3


Вы не можете начинать темы
Вы не можете отвечать на сообщения
Вы не можете редактировать свои сообщения
Вы не можете удалять свои сообщения
Вы не можете голосовать в опросах
Вы не можете прикреплять файлы к сообщениям
Вы не можете скачивать файлы