Lindsey Stirling - Live From London [2015, Classical crossover, Electronic, Dubstep, BD=>DVD9]


 

[Цитировать]

Lindsey Stirling - Live From London
Год выпуска: 2015
Жанр: Classical crossover, Electronic, Dubstep
Продолжительность: 01:40:42
Язык: English
Исполнители:
Violinist: Lindsey Stirling
Keyboard Player: Jason Gaviati
Drummer: Drew Steen
Backing Dancers: Pete Styles & Stevo Jones
Треклист:
1.Beyond The Veil
2.Mirror Haus
3.Electric Daisy
4.Heist
5.Night Vision
6.Swag
7.We Are Giants ( Vocals By Dia Frampton)
8.Zelda
9.Transcendence
10.All of Me
11.Take Flight
12..Moon Trance
13.Roundtable Rival
14.Master of Tides
15.Crystallize
16.Shatter Me ( Vocals By Lzzy Hale)
17.Stars Align
+
Music Videos:
- Beyond The Veil
- Shatter Me
- Roundtable Rival
Backstage Interview
Описание: In LINDSEY STIRLING: LIVE FROM LONDON, electronic violinist and dancer Lindsey Stirling brings her incredibly creative music production to the big stage. Filmed at London's Forum Theater in 2014, the dynamic program showcases a new music world where the infectious energy of dance and electronic music meet modern classical.
Меню анимированное, созданное на основе исходного.
Полученный результат проверен на работоспособность на софтовом Media Player Classic Home Cinema, записан на болванку с помощью ImgBurn и вновь проверен уже на бытовом плеере.

Программы, использованные при создании этого релиза

Демуксинг
eac3to
HdBrStreamExtractor
Обработка видео
DGDecodeNV
AviSynth
Rhozet Carbon Coder
Обработка аудио
Audacity
DTS-HD Master Audio Suite
Создание меню
SnagIt
AviSynth
Rhozet Carbon Coder
Авторинг и проверка
MPEG Video Wizard DVD
Muxman
DVD-lab PRO
DvdReMakePro

Скрипт

LoadPlugin("C:\folders\dgdecnv2041\DGDecodeNV.dll")
DGSource("G:\LINDSEY\L.dgi")
LoadPlugin("C:\Program Files (x86)\AviSynth 2.5\plugins\AutoYUY2.dll")
AutoYUY2()
LoadPlugin("C:\Program Files (x86)\AviSynth 2.5\plugins\ColorMatrix.dll")
ColorMatrix(mode="Rec.709->Rec.601", inputFR=false, clamp=0)
BicubicResize(720, 480, 0, 0.5)

Точка перехода

сэмпл
Качество видео: BD=>DVD9
Формат/Контейнер: DVDVideo
Видео кодек: MPEG2
Аудио кодек: PCM; DTS
Видео поток: NTSC 16:9 (720x480p) VBR Auto Letterboxed ~6700 (6800) Kbps 23.976 fps
Аудио поток 1: English (LinearPCM, 2 ch) 1536 kbps
Аудио поток 2: English (DTS, 6 ch) 1510 kbps (Only live)

DVDInfo+MI

Title: Lindsey Stirling - Live From London
Size: 7.72 Gb ( 8 100 062,00 KBytes ) - DVD-9
Enabled regions: 1, 2, 3, 4, 5, 6, 7, 8
VTS_01 :
Play Length: 01:21:35+00:04:16+00:04:53+00:03:31+00:06:27
Video: NTSC 16:9 (720x480) VBR, Auto Letterboxed
Audio:
English, LPCM, Delay = 0 mSec
English, DTS, 3/2 (L,C,R,SL,SR), 1536 kbps, Delay 0 mSec
* Menus Information *
VIDEO_TS Menu
Video:
NTSC 16:9 (720x480) VBR
Auto Letterboxed
Audio:
Not specified (LinearPCM, 2 ch)
English Language Unit :
Title Menu
VTS_01 Menu
Video:
NTSC 16:9 (720x480) VBR
Auto Letterboxed
Audio:
Not specified (LinearPCM, 2 ch)
English Language Unit :
Root Menu-General
Complete name : D:\Downloads\Lindsey Stirling - Live From London\VIDEO_TS\VIDEO_TS.BUP
Format : DVD Video
Format profile : Menu
File size : 12.0 KiB
Overall bit rate mode : Variable
Video
ID : 224 (0xE0)
Format : MPEG Video
Format version : Version 2
Bit rate mode : Variable
Width : 720 pixels
Height : 480 pixels
Display aspect ratio : 16:9
Frame rate : 29.970 fps
Standard : NTSC
Compression mode : Lossy
Audio
Format : PCM
Channel(s) : 2 channels
Sampling rate : 48.0 KHz
Text
Format : RLE
Format/Info : Run-length encoding
Bit depth : 2 bits
General
Complete name : D:\Downloads\Lindsey Stirling - Live From London\VIDEO_TS\VIDEO_TS.IFO
Format : DVD Video
Format profile : Menu
File size : 12.0 KiB
Overall bit rate mode : Variable
Video
ID : 224 (0xE0)
Format : MPEG Video
Format version : Version 2
Bit rate mode : Variable
Width : 720 pixels
Height : 480 pixels
Display aspect ratio : 16:9
Frame rate : 29.970 fps
Standard : NTSC
Compression mode : Lossy
Audio
Format : PCM
Channel(s) : 2 channels
Sampling rate : 48.0 KHz
Text
Format : RLE
Format/Info : Run-length encoding
Bit depth : 2 bits
General
Complete name : D:\Downloads\Lindsey Stirling - Live From London\VIDEO_TS\VIDEO_TS.VOB
Format : MPEG-PS
File size : 21.9 MiB
Duration : 32s 466ms
Overall bit rate mode : Variable
Overall bit rate : 5 662 Kbps
Video
ID : 224 (0xE0)
Format : MPEG Video
Format version : Version 2
Format profile : Main@Main
Format settings, BVOP : Yes
Format settings, Matrix : Custom
Format settings, GOP : M=3, N=12
Duration : 32s 466ms
Bit rate mode : Variable
Bit rate : 4 013 Kbps
Maximum bit rate : 8 000 Kbps
Width : 720 pixels
Height : 480 pixels
Display aspect ratio : 16:9
Frame rate : 23.976 fps
Standard : NTSC
Color space : YUV
Chroma subsampling : 4:2:0
Bit depth : 8 bits
Scan type : Progressive
Scan order : 2:3 Pulldown
Compression mode : Lossy
Bits/(Pixel*Frame) : 0.484
Time code of first frame : 00:00:00:00
Time code source : Group of pictures header
Stream size : 15.5 MiB (71%)
Audio
ID : 189 (0xBD)-160 (0xA0)
Format : PCM
Format settings, Endianness : Big
Format settings, Sign : Signed
Muxing mode : DVD-Video
Duration : 32s 306ms
Bit rate mode : Constant
Bit rate : 1 536 Kbps
Channel(s) : 2 channels
Sampling rate : 48.0 KHz
Bit depth : 16 bits
Stream size : 5.92 MiB (27%)
Text #1
ID : 189 (0xBD)-32 (0x20)
Format : RLE
Format/Info : Run-length encoding
Muxing mode : DVD-Video
Text #2
ID : 189 (0xBD)-34 (0x22)
Format : RLE
Format/Info : Run-length encoding
Muxing mode : DVD-Video
Menu
General
Complete name : D:\Downloads\Lindsey Stirling - Live From London\VIDEO_TS\VTS_01_0.BUP
Format : DVD Video
Format profile : Program
File size : 80.0 KiB
Duration : 1h 21mn
Overall bit rate mode : Variable
Overall bit rate : 134 bps
Video
ID : 224 (0xE0)
Format : MPEG Video
Format version : Version 2
Duration : 1h 21mn
Bit rate mode : Variable
Width : 720 pixels
Height : 480 pixels
Display aspect ratio : 16:9
Frame rate : 29.970 fps
Standard : NTSC
Compression mode : Lossy
Audio #1
ID : 0 (0x0)
Format : PCM
Duration : 1h 21mn
Channel(s) : 2 channels
Sampling rate : 48.0 KHz
Language : English
Audio #2
ID : 137 (0x89)
Format : DTS
Format/Info : Digital Theater Systems
Duration : 1h 21mn
Channel(s) : 6 channels
Sampling rate : 48.0 KHz
Compression mode : Lossy
Language : English
Menu #1
Duration : 1h 21mn
00:00:00.000 : Chapter 1
00:01:49.466 : Chapter 2
00:04:27.899 : Chapter 3
00:08:15.365 : Chapter 4
00:13:12.398 : Chapter 5
00:16:45.131 : Chapter 6
00:21:11.931 : Chapter 7
00:24:25.197 : Chapter 8
00:28:33.130 : Chapter 9
00:31:13.463 : Chapter 10
00:38:53.896 : Chapter 11
00:43:40.529 : Chapter 12
00:50:56.695 : Chapter 13
00:55:04.528 : Chapter 14
00:59:39.728 : Chapter 15
01:03:30.328 : Chapter 16
01:09:32.061 : Chapter 17
01:14:32.861 : Chapter 18
01:19:51.961 : Chapter 19
List (Audio) : 0 / 1
Menu #2
Duration : 4mn 16s
00:00:00.000 : Chapter 1
List (Audio) : 0
General
Complete name : D:\Downloads\Lindsey Stirling - Live From London\VIDEO_TS\VTS_01_0.IFO
Format : DVD Video
Format profile : Program
File size : 80.0 KiB
Duration : 1h 21mn
Overall bit rate mode : Variable
Overall bit rate : 134 bps
Video
ID : 224 (0xE0)
Format : MPEG Video
Format version : Version 2
Duration : 1h 21mn
Bit rate mode : Variable
Width : 720 pixels
Height : 480 pixels
Display aspect ratio : 16:9
Frame rate : 29.970 fps
Standard : NTSC
Compression mode : Lossy
Audio #1
ID : 0 (0x0)
Format : PCM
Duration : 1h 21mn
Channel(s) : 2 channels
Sampling rate : 48.0 KHz
Language : English
Audio #2
ID : 137 (0x89)
Format : DTS
Format/Info : Digital Theater Systems
Duration : 1h 21mn
Channel(s) : 6 channels
Sampling rate : 48.0 KHz
Compression mode : Lossy
Language : English
Menu #1
Duration : 1h 21mn
00:00:00.000 : Chapter 1
00:01:49.466 : Chapter 2
00:04:27.899 : Chapter 3
00:08:15.365 : Chapter 4
00:13:12.398 : Chapter 5
00:16:45.131 : Chapter 6
00:21:11.931 : Chapter 7
00:24:25.197 : Chapter 8
00:28:33.130 : Chapter 9
00:31:13.463 : Chapter 10
00:38:53.896 : Chapter 11
00:43:40.529 : Chapter 12
00:50:56.695 : Chapter 13
00:55:04.528 : Chapter 14
00:59:39.728 : Chapter 15
01:03:30.328 : Chapter 16
01:09:32.061 : Chapter 17
01:14:32.861 : Chapter 18
01:19:51.961 : Chapter 19
List (Audio) : 0 / 1
Menu #2
Duration : 4mn 16s
00:00:00.000 : Chapter 1
List (Audio) : 0
General
Complete name : D:\Downloads\Lindsey Stirling - Live From London\VIDEO_TS\VTS_01_0.VOB
Format : MPEG-PS
File size : 951 MiB
Duration : 4mn 19s
Overall bit rate mode : Variable
Overall bit rate : 30.7 Mbps
Video
ID : 224 (0xE0)
Format : MPEG Video
Format version : Version 2
Format profile : Main@Main
Format settings, BVOP : Yes
Format settings, Matrix : Custom
Format settings, GOP : Variable
Duration : 4mn 19s
Bit rate mode : Variable
Bit rate : 28.6 Mbps
Maximum bit rate : 8 000 Kbps
Width : 720 pixels
Height : 480 pixels
Display aspect ratio : 16:9
Frame rate : 23.976 fps
Standard : NTSC
Color space : YUV
Chroma subsampling : 4:2:0
Bit depth : 8 bits
Scan type : Progressive
Scan order : 2:3 Pulldown
Compression mode : Lossy
Bits/(Pixel*Frame) : 3.450
Time code of first frame : 00:00:00:00
Time code source : Group of pictures header
Stream size : 885 MiB (93%)
Audio
ID : 189 (0xBD)-160 (0xA0)
Format : PCM
Format settings, Endianness : Big
Format settings, Sign : Signed
Muxing mode : DVD-Video
Duration : 4mn 19s
Bit rate mode : Constant
Bit rate : 1 536 Kbps
Channel(s) : 2 channels
Sampling rate : 48.0 KHz
Bit depth : 16 bits
Stream size : 47.5 MiB (5%)
Text #1
ID : 189 (0xBD)-32 (0x20)
Format : RLE
Format/Info : Run-length encoding
Muxing mode : DVD-Video
Text #2
ID : 189 (0xBD)-34 (0x22)
Format : RLE
Format/Info : Run-length encoding
Muxing mode : DVD-Video
Menu
General
Complete name : D:\Downloads\Lindsey Stirling - Live From London\VIDEO_TS\VTS_01_1.VOB
Format : MPEG-PS
File size : 1 024 MiB
Duration : 14mn 27s
Overall bit rate mode : Variable
Overall bit rate : 9 901 Kbps
Video
ID : 224 (0xE0)
Format : MPEG Video
Format version : Version 2
Format profile : Main@Main
Format settings, BVOP : Yes
Format settings, Matrix : Custom
Format settings, GOP : Variable
Duration : 14mn 27s
Bit rate mode : Variable
Bit rate : 6 658 Kbps
Maximum bit rate : 6 800 Kbps
Width : 720 pixels
Height : 480 pixels
Display aspect ratio : 16:9
Frame rate : 23.976 fps
Standard : NTSC
Color space : YUV
Chroma subsampling : 4:2:0
Bit depth : 8 bits
Scan type : Progressive
Scan order : 2:3 Pulldown
Compression mode : Lossy
Bits/(Pixel*Frame) : 0.804
Time code of first frame : 00:00:00:00
Time code source : Group of pictures header
Stream size : 689 MiB (67%)
Audio #1
ID : 189 (0xBD)-137 (0x89)
Format : DTS
Format/Info : Digital Theater Systems
Mode : 16
Format settings, Endianness : Big
Muxing mode : DVD-Video
Duration : 14mn 27s
Bit rate mode : Constant
Bit rate : 1 510 Kbps
Channel(s) : 6 channels
Channel positions : Front: L C R, Side: L R, LFE
Sampling rate : 48.0 KHz
Bit depth : 24 bits
Compression mode : Lossy
Stream size : 156 MiB (15%)
Audio #2
ID : 189 (0xBD)-160 (0xA0)
Format : PCM
Format settings, Endianness : Big
Format settings, Sign : Signed
Muxing mode : DVD-Video
Duration : 14mn 27s
Bit rate mode : Constant
Bit rate : 1 536 Kbps
Channel(s) : 2 channels
Sampling rate : 48.0 KHz
Bit depth : 16 bits
Stream size : 159 MiB (16%)
Menu
General
Complete name : D:\Downloads\Lindsey Stirling - Live From London\VIDEO_TS\VTS_01_2.VOB
Format : MPEG-PS
File size : 1 024 MiB
Duration : 14mn 27s
Overall bit rate mode : Variable
Overall bit rate : 9 901 Kbps
Video
ID : 224 (0xE0)
Format : MPEG Video
Format version : Version 2
Format profile : Main@Main
Format settings, BVOP : Yes
Format settings, Matrix : Custom
Format settings, GOP : Variable
Duration : 14mn 27s
Bit rate mode : Variable
Bit rate : 6 659 Kbps
Maximum bit rate : 6 800 Kbps
Width : 720 pixels
Height : 480 pixels
Display aspect ratio : 16:9
Frame rate : 23.976 fps
Standard : NTSC
Color space : YUV
Chroma subsampling : 4:2:0
Bit depth : 8 bits
Scan type : Progressive
Scan order : 2:3 Pulldown
Compression mode : Lossy
Bits/(Pixel*Frame) : 0.804
Time code of first frame : 00:14:26:28
Time code source : Group of pictures header
Stream size : 688 MiB (67%)
Audio #1
ID : 189 (0xBD)-137 (0x89)
Format : DTS
Format/Info : Digital Theater Systems
Mode : 16
Format settings, Endianness : Big
Muxing mode : DVD-Video
Duration : 14mn 27s
Bit rate mode : Constant
Bit rate : 1 510 Kbps
Channel(s) : 6 channels
Channel positions : Front: L C R, Side: L R, LFE
Sampling rate : 48.0 KHz
Bit depth : 24 bits
Compression mode : Lossy
Delay relative to video : -402ms
Stream size : 156 MiB (15%)
Audio #2
ID : 189 (0xBD)-160 (0xA0)
Format : PCM
Format settings, Endianness : Big
Format settings, Sign : Signed
Muxing mode : DVD-Video
Duration : 14mn 27s
Bit rate mode : Constant
Bit rate : 1 536 Kbps
Channel(s) : 2 channels
Sampling rate : 48.0 KHz
Bit depth : 16 bits
Delay relative to video : -400ms
Stream size : 159 MiB (16%)
Menu
General
Complete name : D:\Downloads\Lindsey Stirling - Live From London\VIDEO_TS\VTS_01_3.VOB
Format : MPEG-PS
File size : 1 024 MiB
Duration : 14mn 22s
Overall bit rate mode : Variable
Overall bit rate : 9 955 Kbps
Video
ID : 224 (0xE0)
Format : MPEG Video
Format version : Version 2
Format profile : Main@Main
Format settings, BVOP : Yes
Format settings, Matrix : Custom
Format settings, GOP : Variable
Duration : 14mn 22s
Bit rate mode : Variable
Bit rate : 6 712 Kbps
Maximum bit rate : 6 800 Kbps
Width : 720 pixels
Height : 480 pixels
Display aspect ratio : 16:9
Frame rate : 23.976 fps
Standard : NTSC
Color space : YUV
Chroma subsampling : 4:2:0
Bit depth : 8 bits
Scan type : Progressive
Scan order : 2:3 Pulldown
Compression mode : Lossy
Bits/(Pixel*Frame) : 0.810
Time code of first frame : 00:28:53:24
Time code source : Group of pictures header
Stream size : 690 MiB (67%)
Audio #1
ID : 189 (0xBD)-137 (0x89)
Format : DTS
Format/Info : Digital Theater Systems
Mode : 16
Format settings, Endianness : Big
Muxing mode : DVD-Video
Duration : 14mn 22s
Bit rate mode : Constant
Bit rate : 1 510 Kbps
Channel(s) : 6 channels
Channel positions : Front: L C R, Side: L R, LFE
Sampling rate : 48.0 KHz
Bit depth : 24 bits
Compression mode : Lossy
Delay relative to video : -678ms
Stream size : 155 MiB (15%)
Audio #2
ID : 189 (0xBD)-160 (0xA0)
Format : PCM
Format settings, Endianness : Big
Format settings, Sign : Signed
Muxing mode : DVD-Video
Duration : 14mn 22s
Bit rate mode : Constant
Bit rate : 1 536 Kbps
Channel(s) : 2 channels
Sampling rate : 48.0 KHz
Bit depth : 16 bits
Delay relative to video : -677ms
Stream size : 158 MiB (15%)
Menu
General
Complete name : D:\Downloads\Lindsey Stirling - Live From London\VIDEO_TS\VTS_01_4.VOB
Format : MPEG-PS
File size : 1 024 MiB
Duration : 14mn 28s
Overall bit rate mode : Variable
Overall bit rate : 9 886 Kbps
Video
ID : 224 (0xE0)
Format : MPEG Video
Format version : Version 2
Format profile : Main@Main
Format settings, BVOP : Yes
Format settings, Matrix : Custom
Format settings, GOP : Variable
Duration : 14mn 28s
Bit rate mode : Variable
Bit rate : 6 644 Kbps
Maximum bit rate : 6 800 Kbps
Width : 720 pixels
Height : 480 pixels
Display aspect ratio : 16:9
Frame rate : 23.976 fps
Standard : NTSC
Color space : YUV
Chroma subsampling : 4:2:0
Bit depth : 8 bits
Scan type : Progressive
Scan order : 2:3 Pulldown
Compression mode : Lossy
Bits/(Pixel*Frame) : 0.802
Time code of first frame : 00:43:15:18
Time code source : Group of pictures header
Stream size : 688 MiB (67%)
Audio #1
ID : 189 (0xBD)-137 (0x89)
Format : DTS
Format/Info : Digital Theater Systems
Mode : 16
Format settings, Endianness : Big
Muxing mode : DVD-Video
Duration : 14mn 28s
Bit rate mode : Constant
Bit rate : 1 510 Kbps
Channel(s) : 6 channels
Channel positions : Front: L C R, Side: L R, LFE
Sampling rate : 48.0 KHz
Bit depth : 24 bits
Compression mode : Lossy
Delay relative to video : -503ms
Stream size : 156 MiB (15%)
Audio #2
ID : 189 (0xBD)-160 (0xA0)
Format : PCM
Format settings, Endianness : Big
Format settings, Sign : Signed
Muxing mode : DVD-Video
Duration : 14mn 28s
Bit rate mode : Constant
Bit rate : 1 536 Kbps
Channel(s) : 2 channels
Sampling rate : 48.0 KHz
Bit depth : 16 bits
Delay relative to video : -506ms
Stream size : 159 MiB (16%)
Menu
General
Complete name : D:\Downloads\Lindsey Stirling - Live From London\VIDEO_TS\VTS_01_5.VOB
Format : MPEG-PS
File size : 1 024 MiB
Duration : 14mn 27s
Overall bit rate mode : Variable
Overall bit rate : 9 897 Kbps
Video
ID : 224 (0xE0)
Format : MPEG Video
Format version : Version 2
Format profile : Main@Main
Format settings, BVOP : Yes
Format settings, Matrix : Custom
Format settings, GOP : Variable
Duration : 14mn 27s
Bit rate mode : Variable
Bit rate : 6 654 Kbps
Maximum bit rate : 6 800 Kbps
Width : 720 pixels
Height : 480 pixels
Display aspect ratio : 16:9
Frame rate : 23.976 fps
Standard : NTSC
Color space : YUV
Chroma subsampling : 4:2:0
Bit depth : 8 bits
Scan type : Progressive
Scan order : 2:3 Pulldown
Compression mode : Lossy
Bits/(Pixel*Frame) : 0.803
Time code of first frame : 00:57:43:15
Time code source : Group of pictures header
Stream size : 688 MiB (67%)
Audio #1
ID : 189 (0xBD)-137 (0x89)
Format : DTS
Format/Info : Digital Theater Systems
Mode : 16
Format settings, Endianness : Big
Muxing mode : DVD-Video
Duration : 14mn 27s
Bit rate mode : Constant
Bit rate : 1 510 Kbps
Channel(s) : 6 channels
Channel positions : Front: L C R, Side: L R, LFE
Sampling rate : 48.0 KHz
Bit depth : 24 bits
Compression mode : Lossy
Delay relative to video : -308ms
Stream size : 156 MiB (15%)
Audio #2
ID : 189 (0xBD)-160 (0xA0)
Format : PCM
Format settings, Endianness : Big
Format settings, Sign : Signed
Muxing mode : DVD-Video
Duration : 14mn 27s
Bit rate mode : Constant
Bit rate : 1 536 Kbps
Channel(s) : 2 channels
Sampling rate : 48.0 KHz
Bit depth : 16 bits
Delay relative to video : -307ms
Stream size : 159 MiB (16%)
Menu
General
Complete name : D:\Downloads\Lindsey Stirling - Live From London\VIDEO_TS\VTS_01_6.VOB
Format : MPEG-PS
File size : 1 024 MiB
Overall bit rate mode : Variable
Video
ID : 224 (0xE0)
Format : MPEG Video
Format version : Version 2
Format profile : Main@Main
Format settings, BVOP : Yes
Format settings, Matrix : Custom
Format settings, GOP : Variable
Bit rate mode : Variable
Maximum bit rate : 6 800 Kbps
Width : 720 pixels
Height : 480 pixels
Display aspect ratio : 16:9
Frame rate : 23.976 fps
Standard : NTSC
Color space : YUV
Chroma subsampling : 4:2:0
Bit depth : 8 bits
Scan type : Progressive
Scan order : 2:3 Pulldown
Compression mode : Lossy
Time code of first frame : 01:12:10:19
Time code source : Group of pictures header
Audio #1
ID : 189 (0xBD)-137 (0x89)
Format : DTS
Format/Info : Digital Theater Systems
Mode : 16
Format settings, Endianness : Big
Muxing mode : DVD-Video
Bit rate mode : Constant
Bit rate : 1 510 Kbps
Channel(s) : 6 channels
Channel positions : Front: L C R, Side: L R, LFE
Sampling rate : 48.0 KHz
Bit depth : 24 bits
Compression mode : Lossy
Delay relative to video : -356ms
Audio #2
ID : 189 (0xBD)-160 (0xA0)
Format : PCM
Format settings, Endianness : Big
Format settings, Sign : Signed
Muxing mode : DVD-Video
Bit rate mode : Constant
Bit rate : 1 536 Kbps
Channel(s) : 2 channels
Sampling rate : 48.0 KHz
Bit depth : 16 bits
Delay relative to video : -354ms
Menu
General
Complete name : D:\Downloads\Lindsey Stirling - Live From London\VIDEO_TS\VTS_01_7.VOB
Format : MPEG-PS
File size : 793 MiB
Duration : 4mn 47s
Overall bit rate mode : Variable
Overall bit rate : 23.2 Mbps
Video
ID : 224 (0xE0)
Format : MPEG Video
Format version : Version 2
Format profile : Main@Main
Format settings, BVOP : Yes
Format settings, Matrix : Custom
Format settings, GOP : Variable
Duration : 4mn 46s
Bit rate mode : Variable
Bit rate : 21.2 Mbps
Maximum bit rate : 6 800 Kbps
Width : 720 pixels
Height : 480 pixels
Display aspect ratio : 16:9
Frame rate : 23.976 fps
Standard : NTSC
Color space : YUV
Chroma subsampling : 4:2:0
Bit depth : 8 bits
Scan type : Progressive
Scan order : 2:3 Pulldown
Compression mode : Lossy
Bits/(Pixel*Frame) : 2.554
Time code of first frame : 00:01:40:23
Time code source : Group of pictures header
Stream size : 724 MiB (91%)
Audio
ID : 189 (0xBD)-160 (0xA0)
Format : PCM
Format settings, Endianness : Big
Format settings, Sign : Signed
Muxing mode : DVD-Video
Duration : 4mn 47s
Bit rate mode : Constant
Bit rate : 1 536 Kbps
Channel(s) : 2 channels
Sampling rate : 48.0 KHz
Bit depth : 16 bits
Delay relative to video : -429ms
Stream size : 52.6 MiB (7%)

Скриншоты меню




Показать сообщения:    

Текущее время: 11-Дек 09:11

Часовой пояс: UTC + 3


Вы не можете начинать темы
Вы не можете отвечать на сообщения
Вы не можете редактировать свои сообщения
Вы не можете удалять свои сообщения
Вы не можете голосовать в опросах
Вы не можете прикреплять файлы к сообщениям
Вы не можете скачивать файлы