The Vienna Philharmonic Orchestra in Scandinavia (Carl Nielsen - Symphony No. 4; Jean Sibelius - Lemminkainen-suite) Wiener Philharmoniker, Franz Welser-Most [2015, Classical / Orchestral, HDTV 720p]


 

[Цитировать]

The Vienna Philharmonic Orchestra
in Scandinavia

Wiener Philharmoniker • Franz Welser-Möst

-
Год выпуска: 2015
Лейбл: DR
Жанр: Classical / Orchestral
Продолжительность: 01:49:32
Язык: немецкий (Patricia Schäfer - moderation)
Исполнители:
Wiener Philharmoniker
Franz Welser-Möst - dirigent
Треклист:
Carl Nielsen - Symphony No. 4, op. 29 "The Inextinguishable"
Jean Sibelius - Lemminkäinen-suite, op. 22. Four legends from the Kalevala
Доп. информация:
Aufgezeichnet wurden die Konzerte am 11. Juni im Danish Radio Byens Koncertsal
in Kopenhagen und am 13. Juni im Musiikkitalo in Helsinki

... в этой live-записи концерта также есть небольшое интервью с Franz Welser-Möst ...
Konzert der Wiener Philharmoniker in Kopenhagen und Helsinki 3sat.de
Franz Welser-Möst from Wikipedia, the free encyclopedia
Wiener Philharmoniker Official Site
Wiener Philharmoniker from Wikipedia, the free encyclopedia
Венский филармонический оркестр материал из Википедии - свободной энциклопедии
Качество видео: HDTV 720p
Контейнер: TS
Видео кодек: H.264
Аудио кодек: AC3
Видео поток: Overall bit rate: 13.5 Mbps, 1280*720 (16:9), at 50.000 fps, AVC (High@L4.0) (CABAC / 6 Ref Frames)
Аудио поток: German, 256 Kbps, 48.0 KHz, 2 channels, MPEG Audio (Version 1) (Layer 2)
Аудио 2: 192 Kbps, 48.0 KHz, 2 channels, MPEG Audio (Version 1) (Layer 2)
Аудио 3: German, 448 Kbps, 48.0 KHz, 16 bits, 6 channels, AC-3
Аудио 4: Multiple languages, 192 Kbps, 48.0 KHz, 2 channels, MPEG Audio (Version 1) (Layer 2)
Источник: Digital Satellite > SkyStar HD2 (TechniSat) > raw data to HDD > Cypheros TS-Doctor > Smart Cutter (cut) > ts

MediaInfo

GeneralID : 8900 (0x22C4)Complete name : C:\rutracker.org_HD\3sat HD_The Vienna Philharmonic Orchestra in Scandinavia 2015.tsFormat : MPEG-TSFile size : 10.3 GiBDuration : 1h 49mnOverall bit rate mode : VariableOverall bit rate : 13.5 Mbps
VideoID : 6510 (0x196E)Menu ID : 11150 (0x2B8E)Format : AVCFormat/Info : Advanced Video CodecFormat profile : High@L4.0Format settings, CABAC : YesFormat settings, ReFrames : 6 framesCodec ID : 27Duration : 1h 49mnBit rate : 11.7 MbpsWidth : 1 280 pixelsHeight : 720 pixelsDisplay aspect ratio : 16:9Frame rate : 50.000 fpsColor space : YUVChroma subsampling : 4:2:0Bit depth : 8 bitsScan type : ProgressiveBits/(Pixel*Frame) : 0.254Stream size : 8.97 GiB (87%)Color primaries : BT.709Transfer characteristics : BT.709Matrix coefficients : BT.709
Audio #1ID : 6520 (0x1978)Menu ID : 11150 (0x2B8E)Format : MPEG AudioFormat version : Version 1Format profile : Layer 2Codec ID : 3Duration : 1h 49mnBit rate mode : ConstantBit rate : 256 KbpsChannel(s) : 2 channelsSampling rate : 48.0 KHzCompression mode : LossyDelay relative to video : -18msStream size : 201 MiB (2%)Language : German
Audio #2ID : 6521 (0x1979)Menu ID : 11150 (0x2B8E)Format : MPEG AudioFormat version : Version 1Format profile : Layer 2Codec ID : 3Duration : 1h 49mnBit rate mode : ConstantBit rate : 192 KbpsChannel(s) : 2 channelsSampling rate : 48.0 KHzCompression mode : LossyDelay relative to video : -18msStream size : 150 MiB (1%)
Audio #3ID : 6522 (0x197A)Menu ID : 11150 (0x2B8E)Format : AC-3Format/Info : Audio Coding 3Mode extension : CM (complete main)Format settings, Endianness : BigCodec ID : 6Duration : 1h 49mnBit rate mode : ConstantBit rate : 448 KbpsChannel(s) : 6 channelsChannel positions : Front: L C R, Side: L R, LFESampling rate : 48.0 KHzBit depth : 16 bitsCompression mode : LossyDelay relative to video : -20msStream size : 351 MiB (3%)Language : German
Audio #4ID : 6523 (0x197B)Menu ID : 11150 (0x2B8E)Format : MPEG AudioFormat version : Version 1Format profile : Layer 2Codec ID : 3Duration : 1h 49mnBit rate mode : ConstantBit rate : 192 KbpsChannel(s) : 2 channelsSampling rate : 48.0 KHzCompression mode : LossyDelay relative to video : -10msStream size : 150 MiB (1%)Language : Multiple languages



Показать сообщения:    

Текущее время: 04-Дек 13:17

Часовой пояс: UTC + 3


Вы не можете начинать темы
Вы не можете отвечать на сообщения
Вы не можете редактировать свои сообщения
Вы не можете удалять свои сообщения
Вы не можете голосовать в опросах
Вы не можете прикреплять файлы к сообщениям
Вы не можете скачивать файлы