Salzburger Festspiele 2015 (Петр Чайковский (Pyotr Tchaikovsky) - Violin Concerto / Johannes Brahms - Symphonie Nr. 2) Wiener Philharmoniker, Riccardo Muti, Anne-Sophie Mutter [2015, Classical / Orchestral, HDTV 720p]


 

[Цитировать]

Salzburger Festspiele 2015
Pyotr Tchaikovsky - Violinkonzert / Johannes Brahms - Symphonie Nr. 2
Anne-Sophie Mutter • Wiener Philharmoniker • Riccardo Muti

-
Год выпуска: 2015
Лейбл: ORF & Unitel Classica
Жанр: Classical / Orchestral
Продолжительность: 02:07:45
Язык: немецкий (Maximilian Maier - präsentation)
Режиссер: Agnes Méth (bildregie)
Исполнители:
Wiener Philharmoniker
Riccardo Muti - dirigent
Solistin
Anne-Sophie Mutter - violine
Треклист:
Pyotr Tchaikovsky - Konzert für Violine und Orchester D-Dur op. 35
Johannes Brahms - Symphonie Nr. 2 D-Dur op. 73
Доп. информация:
Das Bayerische Fernsehen überträgt diese Konzertmatinee aus dem
Großen Festspielhaus am 16.08.2015 LIVE ab 11:00 Uhr.

... в этой live-записи концерта также есть интервью с Anne-Sophie Mutter ...
Riccardo Muti und Anne-Sophie Mutter br.de
Riccardo Muti Official Site
Riccardo Muti from Wikipedia, the free encyclopedia
Anne-Sophie Mutter Official Site
Anne-Sophie Mutter from Wikipedia, the free encyclopedia
Wiener Philharmoniker Official Site
Wiener Philharmoniker from Wikipedia, the free encyclopedia
Венский филармонический оркестр материал из Википедии - свободной энциклопедии
Качество видео: HDTV 720p
Контейнер: TS
Видео кодек: H.264
Аудио кодек: AC3
Видео поток: Overall bit rate: 9 199 Kbps, 1280*720 (16:9), at 50.000 fps, AVC (High@L4.0) (CABAC / 4 Ref Frames)
Аудио поток: German, 192 Kbps, 48.0 KHz, 2 channels, MPEG Audio (Version 1) (Layer 2)
Аудио 2: 192 Kbps, 48.0 KHz, 2 channels, MPEG Audio (Version 1) (Layer 2)
Аудио 3: German, 448 Kbps, 48.0 KHz, 16 bits, 2 channels, AC-3
Источник: Digital Satellite > SkyStar HD2 (TechniSat) > raw data to HDD > Cypheros TS-Doctor > Smart Cutter (cut) > ts

MediaInfo

GeneralID : 8900 (0x22C4)Complete name : C:\\BR HD_Wiener Philharmoniker (Riccardo Muti) - Salzburger Festspielen 2015.tsFormat : MPEG-TSFile size : 8.21 GiBDuration : 2h 7mnOverall bit rate mode : VariableOverall bit rate : 9 199 Kbps
VideoID : 5201 (0x1451)Menu ID : 10326 (0x2856)Format : AVCFormat/Info : Advanced Video CodecFormat profile : High@L4.0Format settings, CABAC : YesFormat settings, ReFrames : 4 framesFormat settings, GOP : M=6, N=32Codec ID : 27Duration : 2h 7mnBit rate : 7 904 KbpsWidth : 1 280 pixelsHeight : 720 pixelsDisplay aspect ratio : 16:9Frame rate : 50.000 fpsColor space : YUVChroma subsampling : 4:2:0Bit depth : 8 bitsScan type : ProgressiveBits/(Pixel*Frame) : 0.172Stream size : 7.05 GiB (86%)
Audio #1ID : 5202 (0x1452)Menu ID : 10326 (0x2856)Format : MPEG AudioFormat version : Version 1Format profile : Layer 2Codec ID : 3Duration : 2h 7mnBit rate mode : ConstantBit rate : 192 KbpsChannel(s) : 2 channelsSampling rate : 48.0 KHzCompression mode : LossyDelay relative to video : -21msStream size : 175 MiB (2%)Language : German
Audio #2ID : 5203 (0x1453)Menu ID : 10326 (0x2856)Format : MPEG AudioFormat version : Version 1Format profile : Layer 2Codec ID : 3Duration : 2h 7mnBit rate mode : ConstantBit rate : 192 KbpsChannel(s) : 2 channelsSampling rate : 48.0 KHzCompression mode : LossyDelay relative to video : -21msStream size : 175 MiB (2%)
Audio #3ID : 5206 (0x1456)Menu ID : 10326 (0x2856)Format : AC-3Format/Info : Audio Coding 3Mode extension : CM (complete main)Format settings, Endianness : BigCodec ID : 6Duration : 2h 7mnBit rate mode : ConstantBit rate : 448 KbpsChannel(s) : 2 channelsChannel positions : Front: L RSampling rate : 48.0 KHzBit depth : 16 bitsCompression mode : LossyDelay relative to video : -27msStream size : 409 MiB (5%)Language : German



Показать сообщения:    

Текущее время: 10-Дек 08:06

Часовой пояс: UTC + 3


Вы не можете начинать темы
Вы не можете отвечать на сообщения
Вы не можете редактировать свои сообщения
Вы не можете удалять свои сообщения
Вы не можете голосовать в опросах
Вы не можете прикреплять файлы к сообщениям
Вы не можете скачивать файлы