Berliner Philharmoniker (Sir Simon Rattle, Lang Lang) - Waldbuhne 2015 - Hollywood Music (Alfred Newman, Bronislau Kaper, David Raksin, Grieg, Jerome Moross, Erich Wolfgang Korngold, Scott Bradley, Miklos Rozsa ...) [2015, Orchestral / Open-Air-Konze


 

[Цитировать]

Waldbühne 2015
Hollywood Music
Lang Lang • Berliner Philharmoniker • Sir Simon Rattle

-
Год выпуска: 2015
Лейбл: EuroArts, rbb
Жанр: Orchestral / Open-Air-Konzert
Продолжительность: 02:18:51
Язык: немецкий (Petra Gute - moderation)
Режиссер: Henning Kasten
Исполнители:
Lang Lang - klavier
Sir Simon Rattle - musikalische leitung
Berliner Philharmoniker
Треклист:
Alfred Newman - 20th Century Fox Fanfare
Bronislau Kaper - Mutiny on the Bounty
David Raksin - Laura
Edvard Grieg - Konzert für Klavier und Orchester a-Moll op. 16
Jerome Moross - The Big Country
Erich Wolfgang Korngold - The Adventures of Robin Hood
Scott Bradley - Tom & Jerry
Miklos Rozsa - Ben Hur
John Williams
- Indiana Jones - Raider's March
- E.T. - Flying Theme
- Star Wars - Main Title
Paul Lincke - Berliner Luft
Доп. информация:
Das traditionelle Sommerkonzert am 28.06.2015, Waldbühne Berlin im Olympiapark
... в этой live-записи концерта также есть небольшие интервью с Lang Lang и Sir Simon Rattle ...
Berliner Philharmoniker, Simon Rattle und Lang Lang in der Waldbühne waldbuehne-berlin.de
Die Berliner Philharmoniker in der Waldbühne 2015 3sat.de
Sir Simon Rattle from Wikipedia, the free encyclopedia
Sir Simon Rattle материал из Википедии - свободной энциклопедии
Berliner Philharmoniker Official Site
Berliner Philharmoniker from Wikipedia, the free encyclopedia
Berliner Philharmoniker материал из Википедии - свободной энциклопедии
Качество видео: HDTV 720p
Контейнер: TS
Видео кодек: H.264
Аудио кодек: AC3
Видео поток: Overall bit rate: 14.5 Mbps, 1280*720 (16:9), at 50.000 fps, AVC (High@L4.0) (CABAC / 6 Ref Frames)
Аудио поток: German, 256 Kbps, 48.0 KHz, 2 channels, MPEG Audio (Version 1) (Layer 2)
Аудио 2: 192 Kbps, 48.0 KHz, 2 channels, MPEG Audio (Version 1) (Layer 2)
Аудио 3: German, 448 Kbps, 48.0 KHz, 16 bits, 2 channels, AC-3
Аудио 4: Multiple languages, 192 Kbps, 48.0 KHz, 2 channels, MPEG Audio (Version 1) (Layer 2)
Источник: Digital Satellite > SkyStar HD2 (TechniSat) > raw data to HDD > Cypheros TS-Doctor > Smart Cutter (cut) > ts

MediaInfo

GeneralID : 8900 (0x22C4)Complete name : C:\rutracker.org_HD\3sat HD_Berliner Philharmoniker - Waldbuhne 2015.tsFormat : MPEG-TSFile size : 14.1 GiBDuration : 2h 18mnOverall bit rate mode : VariableOverall bit rate : 14.5 Mbps
VideoID : 6510 (0x196E)Menu ID : 11150 (0x2B8E)Format : AVCFormat/Info : Advanced Video CodecFormat profile : High@L4.0Format settings, CABAC : YesFormat settings, ReFrames : 6 framesCodec ID : 27Duration : 2h 18mnBit rate : 12.7 MbpsWidth : 1 280 pixelsHeight : 720 pixelsDisplay aspect ratio : 16:9Frame rate : 50.000 fpsColor space : YUVChroma subsampling : 4:2:0Bit depth : 8 bitsScan type : ProgressiveBits/(Pixel*Frame) : 0.275Stream size : 12.3 GiB (87%)Color primaries : BT.709Transfer characteristics : BT.709Matrix coefficients : BT.709
Audio #1ID : 6520 (0x1978)Menu ID : 11150 (0x2B8E)Format : MPEG AudioFormat version : Version 1Format profile : Layer 2Codec ID : 3Duration : 2h 18mnBit rate mode : ConstantBit rate : 256 KbpsChannel(s) : 2 channelsSampling rate : 48.0 KHzCompression mode : LossyDelay relative to video : -3msStream size : 254 MiB (2%)Language : German
Audio #2ID : 6521 (0x1979)Menu ID : 11150 (0x2B8E)Format : MPEG AudioFormat version : Version 1Format profile : Layer 2Codec ID : 3Duration : 2h 18mnBit rate mode : ConstantBit rate : 192 KbpsChannel(s) : 2 channelsSampling rate : 48.0 KHzCompression mode : LossyDelay relative to video : -3msStream size : 191 MiB (1%)
Audio #3ID : 6522 (0x197A)Menu ID : 11150 (0x2B8E)Format : AC-3Format/Info : Audio Coding 3Mode extension : CM (complete main)Format settings, Endianness : BigCodec ID : 6Duration : 2h 18mnBit rate mode : ConstantBit rate : 448 KbpsChannel(s) : 2 channelsChannel positions : Front: L RSampling rate : 48.0 KHzBit depth : 16 bitsCompression mode : LossyDelay relative to video : -31msStream size : 445 MiB (3%)Language : German
Audio #4ID : 6523 (0x197B)Menu ID : 11150 (0x2B8E)Format : MPEG AudioFormat version : Version 1Format profile : Layer 2Codec ID : 3Duration : 2h 18mnBit rate mode : ConstantBit rate : 192 KbpsChannel(s) : 2 channelsSampling rate : 48.0 KHzCompression mode : LossyDelay relative to video : -19msStream size : 191 MiB (1%)Language : Multiple languages
... info ...">

Скриншоты ... info ...


Die Berliner Philharmoniker in der Waldbühne 2015
Im traditionellen Waldbühnenkonzert widmet sich Chefdirigent Sir Simon Rattle mit den Berliner Philharmonikern zum Abschluss der Spielzeit diesmal der Filmmusik.
Mit "Harry Potter" und "E.T." sind dabei Werke des mehrfachen Oscar- und Grammy-Gewinners John Williams vertreten, der als der bekannteste lebende Filmmusik-Komponist unserer Zeit gilt. Nicht minder berühmt war Miklós Rózsa, der die Musik zu "Ben Hur" schrieb.
Die Musik erinnert an das wohl bekannteste Wagenrennen der Filmgeschichte. Bernard Herrmann wurde mit Arbeiten für Alfred Hitchcock wie "Vertigo", "Marnie" und "Psycho" weltberühmt.
Als Solist des Abends wird Lang Lang erwartet, der sich mit Edvard Griegs Klavierkonzert ein besonders brillantes Werk der Gattung ausgesucht hat: Die Kadenz zum ersten Satz beeindruckte sogar einen Jahrhundertvirtuosen wie Franz Liszt, der das Konzert mit einem "berauschenden Getränk" verglich und Grieg mit den Worten ermutigte: "Fahren Sie so fort, ich sage Ihnen, Sie haben das Zeug dazu, und - lassen Sie sich nicht abschrecken!"
~ 3sat.de



Показать сообщения:    

Текущее время: 02-Дек 21:09

Часовой пояс: UTC + 3


Вы не можете начинать темы
Вы не можете отвечать на сообщения
Вы не можете редактировать свои сообщения
Вы не можете удалять свои сообщения
Вы не можете голосовать в опросах
Вы не можете прикреплять файлы к сообщениям
Вы не можете скачивать файлы