Lindsey Stirling - Live From London [2015, Modern Classical, Electronic, Dubstep, BDRip 1080p]


 

[Цитировать]

Lindsey Stirling - Live From London
Год выпуска: 2015
Лейбл: Universal Music
Страна-производитель: Германия
Жанр: Modern Classical, Electronic, Dubstep
Продолжительность: 01:21:40
Язык: Английский
Перевод: Не требуется
Исполнители: Линдси Стирлинг
Треклист:
01. Beyond The Veil
02. Mirror Haus
03. Electric Daisy Violin
04. Night Vision
05. Heist
06. Swag
07. We Are Giants
08. Transcendence
09. All Of Me
10. Take Flight
11. Moon Trance
12. Roundtable Rival
13. Master Of Tides
14. Crystallize
15. Shatter Me
16. Stars Align
http://www.lindseystirling.com/
https://www.youtube.com/user/lindseystomp
http://www.blu-ray.com/movies/Lindsey-Stirling-Live...-Blu-ray/135030/
Описание:
Концерт талантливой американской скрипачки Линдси Стирлинг состоялся в Лондоне в Forum Theater в 2014 году. Линдси исполняет очень разную музыку, от классики до дабстепа, но, кроме всего прочего, она записывает кавер-версии популярных игровых саундтреков, что привлекло к ней внимание игроков. В прошлом году вышел ее второй студийный альбом «Shatter Me»…
Качество видео: BDRip 1080p
Формат/Контейнер: MKV
Видео кодек: H.264
Аудио кодек: DTS
Видео поток: MPEG-4 AVC 8195 Kbps 1920*1080 / 23.976 fps / High Profile 4.1
Аудио поток #1: DTS 5.1 / 48 kHz / ~1509 kbps / 24-bit
Аудио поток #2: Dolby Digital 5.1 / 48 kHz / 448 kbps / 16-bit
Аудио поток #3: AAC-LC 2.0 / 48 kHz / ~320 kbps / 16-bit
Аудио поток #4: FLAC 2.0 / 48 kHz / ~1787 kbps / 24-bit
Главы: [+] подписаны названиями песен

Скриншоты



Медиа-Инфо

GeneralUnique ID : 224793975165935426712140249131972317337 (0xA91DBEABCD548EA6B6AF0111FEA45099)Complete name : Lindsey Stirling - Live From London (2015) BDRip-1080p [HDLine].mkvFormat : MatroskaFormat version : Version 2File size : 7.00 GiBDuration : 1h 21mnOverall bit rate mode : VariableOverall bit rate : 12.3 MbpsMovie name : Lindsey Stirling - Live From London (2015) BDRip-1080p [HDLine]Encoded date : UTC 2015-08-08 10:16:44Writing application : mkvmerge v8.2.0 ('World of Adventure') 64bitWriting library : libebml v1.3.1 + libmatroska v1.4.2Attachements : Cover.jpgDURATION : 01:21:37.290000000NUMBER_OF_FRAMES : 51014NUMBER_OF_BYTES : 1094051458_STATISTICS_WRITING_APP : mkvmerge v8.2.0 ('World of Adventure') 64bit_STATISTICS_WRITING_DATE_UTC : 2015-08-08 10:16:44_STATISTICS_TAGS : BPS DURATION NUMBER_OF_FRAMES NUMBER_OF_BYTES
VideoID : 1Format : AVCFormat/Info : Advanced Video CodecFormat profile : High@L4.1Format settings, CABAC : YesFormat settings, ReFrames : 3 framesCodec ID : V_MPEG4/ISO/AVCDuration : 1h 21mnNominal bit rate : 8 195 KbpsWidth : 1 920 pixelsHeight : 1 080 pixelsDisplay aspect ratio : 16:9Frame rate mode : ConstantFrame rate : 23.976 fpsColor space : YUVChroma subsampling : 4:2:0Bit depth : 8 bitsScan type : ProgressiveBits/(Pixel*Frame) : 0.165Title : Lindsey Stirling - Live From London 2014Writing library : x264 core 146 r2538kMod 121396cEncoding settings : cabac=1 / ref=4 / deblock=1:0:0 / analyse=0x3:0x133 / me=umh / subme=10 / psy=1 / fade_compensate=0.00 / psy_rd=1.00:0.00 / mixed_ref=1 / me_range=24 / chroma_me=1 / trellis=2 / 8x8dct=1 / cqm=0 / deadzone=21,11 / fast_pskip=1 / chroma_qp_offset=-2 / threads=10 / lookahead_threads=1 / sliced_threads=0 / nr=0 / decimate=1 / interlaced=0 / bluray_compat=1 / constrained_intra=0 / fgo=0 / bframes=3 / b_pyramid=1 / b_adapt=2 / b_bias=0 / direct=3 / weightb=1 / open_gop=0 / weightp=1 / keyint=240 / keyint_min=1 / scenecut=40 / intra_refresh=0 / rc_lookahead=60 / rc=2pass / mbtree=1 / bitrate=8195 / ratetol=1.0 / qcomp=0.60 / qpmin=0 / qpmax=69 / qpstep=4 / cplxblur=20.0 / qblur=0.5 / ip_ratio=1.40 / aq=1:1.00Language : EnglishDefault : YesForced : NoDURATION : 01:21:40.020000000NUMBER_OF_FRAMES : 117483NUMBER_OF_BYTES : 5018571048_STATISTICS_WRITING_APP : mkvmerge v8.2.0 ('World of Adventure') 64bit_STATISTICS_WRITING_DATE_UTC : 2015-08-08 10:16:44_STATISTICS_TAGS : BPS DURATION NUMBER_OF_FRAMES NUMBER_OF_BYTES
Audio #1ID : 2Format : DTSFormat/Info : Digital Theater SystemsMode : 16Format settings, Endianness : BigCodec ID : A_DTSDuration : 1h 21mnBit rate mode : ConstantBit rate : 1 509 KbpsChannel(s) : 6 channelsChannel positions : Front: L C R, Side: L R, LFESampling rate : 48.0 KHzBit depth : 24 bitsCompression mode : LossyStream size : 881 MiB (12%)Title : DTS 5.1 48KHz@1509kbps (24-bit)Language : EnglishDefault : YesForced : No
Audio #2ID : 3Format : AC-3Format/Info : Audio Coding 3Mode extension : CM (complete main)Format settings, Endianness : BigCodec ID : A_AC3Duration : 1h 21mnBit rate mode : ConstantBit rate : 448 KbpsChannel(s) : 6 channelsChannel positions : Front: L C R, Side: L R, LFESampling rate : 48.0 KHzBit depth : 16 bitsCompression mode : LossyStream size : 262 MiB (4%)Title : AC3 5.1 48KHz@448kbpsLanguage : EnglishDefault : NoForced : No
Audio #3ID : 4Format : AACFormat/Info : Advanced Audio CodecFormat profile : LCCodec ID : A_AACDuration : 1h 21mnBit rate mode : VariableBit rate : 337 KbpsMaximum bit rate : 397 KbpsChannel(s) : 2 channelsChannel positions : Front: L RSampling rate : 48.0 KHzCompression mode : LossyDelay relative to video : 20msTitle : AAC-LC 2.0 48KHz@320kbpsLanguage : EnglishDefault : NoForced : No
Audio #4ID : 5Format : FLACFormat/Info : Free Lossless Audio CodecCodec ID : A_FLACDuration : 1h 21mnBit rate mode : VariableBit rate : 1 787 KbpsChannel(s) : 2 channelsSampling rate : 48.0 KHzBit depth : 24 bitsTitle : FLAC 2.0 48KHz@1787kbps (24-bit)Writing library : libFLAC 1.2.1 (UTC 2007-09-17)Language : EnglishDefault : NoForced : No
Menu00:00:00.000 : en:-= INTRO =-00:01:49.734 : en:01. Beyond The Veil00:04:23.179 : en:02. Mirror Haus00:08:14.911 : en:03. Electric Daisy Violin00:13:13.209 : en:04. Night Vision00:16:46.380 : en:05. Heist00:21:12.854 : en:06. Swag00:24:26.006 : en:07. We Are Giants00:28:34.921 : en:...about Lindsey Stirling00:31:12.871 : en:08. Transcendence00:38:56.292 : en:09. All Of Me00:43:44.038 : en:10. Take Flight00:50:59.765 : en:11. Moon Trance00:55:07.721 : en:12. Roundtable Rival00:59:42.912 : en:13. Master Of Tides01:03:31.849 : en:14. Crystallize01:09:35.796 : en:15. Shatter Me01:14:37.347 : en:16. Stars Align01:19:54.623 : en:-= credits =-
Релиз от



Показать сообщения:    

Текущее время: 10-Дек 09:58

Часовой пояс: UTC + 3


Вы не можете начинать темы
Вы не можете отвечать на сообщения
Вы не можете редактировать свои сообщения
Вы не можете удалять свои сообщения
Вы не можете голосовать в опросах
Вы не можете прикреплять файлы к сообщениям
Вы не можете скачивать файлы