Lindsey Stirling - Live From London [2015, Classical, Modern Classical, Electronic, Dubstep, Blu-ray]


 

[Цитировать]

Lindsey Stirling
Live From London
Жанр: Classical, Modern Classical, Electronic, Dubstep
Место и дата записи концерта: The Forum, London, UK – 2014 г.
Год релиза издания: 2015
Продолжительность: 01:21:40
Источник: HDBits
Треклист:
[01] Beyond The Veil
[02] Mirror Haus
[03] Electric Daisy Violin
[04] Night Vision
[05] Heist
[06] Swag
[07] We Are Giants
[08] Transcendence
[09] All Of Me
[10] Take Flight
[11] Moon Trance
[12] Roundtable Rival
[13] Master Of Tides
[14] Crystallize
[15] Shatter Me
[16] Stars Align
Exclusive Bonus Content:
Backstage Interview (00:06:27)
Music Videos:
* Shatter Me (00:04:54)
* Beyond The Veil (00:04:16)
* Roundtable Rival (00:03:31)
Качество: Blu-ray
Контейнер: BDMV
Видеокодек: MPEG-4 AVC
Аудиокодек: LPCM | DTS-HD Master Audio
Видео: | 30000 kbps | 1080p | 23.976 fps | 16:9 | MPEG-4 AVC
Аудио: | 2.0 | 48 kHz | 2304 kbps | 24-bit | LPCM
Аудио: | 5.1 | 48 kHz | 5113 kbps | 24-bit | DTS-HD Master Audio

BDInfo

Disc Title: LINDSEY_STIRLING_LIVE_FROM_LONDONDisc Size: 31 146 269 779 bytesProtection: AACSBD-Java: NoBDInfo: 0.5.8
Notes:
BDINFO HOME: Cinema Squid http://www.cinemasquid.com/blu-ray/tools/bdinfo
INCLUDES FORUMS REPORT FOR: AVS Forum Blu-ray Audio and Video Specifications Thread http://www.avsforum.com/avs-vb/showthread.php?t=1155731
********************PLAYLIST: 00003.MPLS********************
Total   Video
Title                                                           Codec   Length  Movie Size      Disc Size       Bitrate Bitrate Main Audio Track                          Secondary Audio Track
-----                                                           ------  ------- --------------  --------------  ------- ------- ------------------                        ---------------------
00003.MPLS                                                      AVC     1:21:40 24 137 895 936  31 146 269 779  39.41   30.00   LPCM 2.0 2304Kbps (48kHz/24-bit)          DTS-HD Master 5.1 5113Kbps (48kHz/24-bit)
DISC INFO:
Disc Title:     LINDSEY_STIRLING_LIVE_FROM_LONDON
Disc Size:      31 146 269 779 bytes
Protection:     AACS
BD-Java:        No
BDInfo:         0.5.8
PLAYLIST REPORT:
Name:                   00003.MPLS
Length:                 1:21:40.312 (h:m:s.ms)
Size:                   24 137 895 936 bytes
Total Bitrate:          39.41 Mbps
VIDEO:
Codec                   Bitrate             Description
-----                   -------             -----------
MPEG-4 AVC Video        30000 kbps          1080p / 23.976 fps / 16:9 / High Profile 4.1
AUDIO:
Codec                           Language        Bitrate         Description
-----                           --------        -------         -----------
LPCM Audio                      English         2304 kbps       2.0 / 48 kHz / 2304 kbps / 24-bit
DTS-HD Master Audio             English         5113 kbps       5.1 / 48 kHz / 5113 kbps / 24-bit (DTS Core: 5.1 / 48 kHz / 1509 kbps / 24-bit)
FILES:
Name            Time In         Length          Size            Total Bitrate
----            -------         ------          ----            -------------
00006.M2TS      0:00:00.000     1:21:40.312     24 137 895 936  39 406
CHAPTERS:
Number          Time In         Length          Avg Video Rate  Max 1-Sec Rate  Max 1-Sec Time  Max 5-Sec Rate  Max 5-Sec Time  Max 10Sec Rate  Max 10Sec Time  Avg Frame Size  Max Frame Size  Max Frame Time
------          -------         ------          --------------  --------------  --------------  --------------  --------------  --------------  --------------  --------------  --------------  --------------
1               0:00:00.000     0:01:49.734     30 013 kbps     33 685 kbps     00:00:32.073    31 043 kbps     00:00:55.138    30 484 kbps     00:00:50.175    156 413 bytes   339 981 bytes   00:00:00.959
2               0:01:49.734     0:02:33.444     30 014 kbps     36 364 kbps     00:02:14.843    31 472 kbps     00:02:10.839    30 613 kbps     00:02:05.792    156 481 bytes   442 994 bytes   00:04:23.179
3               0:04:23.179     0:03:51.731     29 992 kbps     40 382 kbps     00:05:54.979    32 100 kbps     00:05:50.975    30 992 kbps     00:05:45.970    156 365 bytes   461 284 bytes   00:04:23.221
4               0:08:14.911     0:04:58.297     30 009 kbps     37 561 kbps     00:10:48.773    31 598 kbps     00:10:44.810    30 723 kbps     00:10:39.930    156 456 bytes   590 021 bytes   00:10:49.482
5               0:13:13.209     0:03:33.171     29 990 kbps     40 841 kbps     00:16:40.374    31 836 kbps     00:16:36.412    30 970 kbps     00:16:31.407    156 354 bytes   543 354 bytes   00:13:13.375
6               0:16:46.380     0:04:26.474     29 995 kbps     36 265 kbps     00:21:08.934    31 461 kbps     00:21:04.972    30 644 kbps     00:17:47.316    156 381 bytes   550 238 bytes   00:19:26.623
7               0:21:12.854     0:03:13.151     30 005 kbps     39 639 kbps     00:23:26.696    31 849 kbps     00:24:16.163    31 017 kbps     00:24:11.116    156 433 bytes   548 052 bytes   00:24:21.001
8               0:24:26.006     0:04:08.915     30 005 kbps     35 032 kbps     00:26:29.170    30 885 kbps     00:26:47.105    30 493 kbps     00:26:25.500    156 434 bytes   404 930 bytes   00:28:34.921
9               0:28:34.921     0:02:37.949     29 995 kbps     33 763 kbps     00:29:47.327    30 924 kbps     00:30:57.605    30 387 kbps     00:30:52.600    156 383 bytes   449 963 bytes   00:28:35.088
10              0:31:12.871     0:07:43.421     30 000 kbps     36 175 kbps     00:38:30.599    31 243 kbps     00:38:26.637    30 641 kbps     00:38:21.590    156 404 bytes   468 431 bytes   00:38:31.434
11              0:38:56.292     0:04:47.745     29 998 kbps     37 215 kbps     00:41:07.798    31 766 kbps     00:41:03.878    30 798 kbps     00:40:58.914    156 395 bytes   383 577 bytes   00:41:08.466
12              0:43:44.038     0:07:15.726     30 002 kbps     37 211 kbps     00:50:12.801    31 361 kbps     00:50:08.797    30 664 kbps     00:43:48.584    156 416 bytes   468 335 bytes   00:49:27.881
13              0:50:59.765     0:04:07.956     29 999 kbps     40 146 kbps     00:54:58.545    32 059 kbps     00:54:54.499    31 067 kbps     00:54:49.494    156 402 bytes   400 592 bytes   00:54:59.212
14              0:55:07.721     0:04:35.191     29 992 kbps     47 360 kbps     00:57:51.092    33 382 kbps     00:57:47.088    31 672 kbps     00:57:42.083    156 367 bytes   621 983 bytes   00:57:52.010
15              0:59:42.912     0:03:48.937     30 009 kbps     35 472 kbps     01:01:18.424    31 360 kbps     01:01:14.420    30 442 kbps     01:01:09.415    156 455 bytes   400 982 bytes   01:03:27.303
16              1:03:31.849     0:06:03.946     29 999 kbps     34 457 kbps     01:03:45.321    31 261 kbps     01:03:41.317    30 539 kbps     01:03:36.395    156 400 bytes   518 159 bytes   01:03:34.310
17              1:09:35.796     0:05:01.551     29 995 kbps     42 992 kbps     01:14:33.343    32 979 kbps     01:14:29.339    31 607 kbps     01:14:24.334    156 379 bytes   601 785 bytes   01:10:13.500
18              1:14:37.347     0:05:17.275     30 006 kbps     34 160 kbps     01:19:07.743    30 855 kbps     01:19:03.655    30 417 kbps     01:18:58.525    156 436 bytes   434 184 bytes   01:14:37.806
19              1:19:54.623     0:01:45.688     29 983 kbps     34 165 kbps     01:20:02.923    30 803 kbps     01:19:58.877    30 312 kbps     01:20:50.595    156 382 bytes   462 443 bytes   01:21:16.454
********************PLAYLIST: 00006.MPLS********************
Total   Video
Title                                                           Codec   Length  Movie Size      Disc Size       Bitrate Bitrate Main Audio Track                          Secondary Audio Track
-----                                                           ------  ------- --------------  --------------  ------- ------- ------------------                        ---------------------
00006.MPLS                                                      AVC     0:06:27 1 911 877 632   31 146 269 779  39.42   33.00   LPCM 2.0 2304Kbps (48kHz/24-bit)          LPCM 2.0 2304Kbps (48kHz/24-bit)
DISC INFO:
Disc Title:     LINDSEY_STIRLING_LIVE_FROM_LONDON
Disc Size:      31 146 269 779 bytes
Protection:     AACS
BD-Java:        No
BDInfo:         0.5.8
PLAYLIST REPORT:
Name:                   00006.MPLS
Length:                 0:06:27.970 (h:m:s.ms)
Size:                   1 911 877 632 bytes
Total Bitrate:          39.42 Mbps
VIDEO:
Codec                   Bitrate             Description
-----                   -------             -----------
MPEG-4 AVC Video        33000 kbps          1080p / 23.976 fps / 16:9 / High Profile 4.1
AUDIO:
Codec                           Language        Bitrate         Description
-----                           --------        -------         -----------
LPCM Audio                      English         2304 kbps       2.0 / 48 kHz / 2304 kbps / 24-bit
LPCM Audio                      English         2304 kbps       2.0 / 48 kHz / 2304 kbps / 24-bit
FILES:
Name            Time In         Length          Size            Total Bitrate
----            -------         ------          ----            -------------
00010.M2TS      0:00:00.000     0:06:27.970     1 911 877 632   39 423
CHAPTERS:
Number          Time In         Length          Avg Video Rate  Max 1-Sec Rate  Max 1-Sec Time  Max 5-Sec Rate  Max 5-Sec Time  Max 10Sec Rate  Max 10Sec Time  Avg Frame Size  Max Frame Size  Max Frame Time
------          -------         ------          --------------  --------------  --------------  --------------  --------------  --------------  --------------  --------------  --------------  --------------
1               0:00:00.000     0:06:27.970     33 000 kbps     37 359 kbps     00:02:28.857    33 927 kbps     00:02:24.894    33 403 kbps     00:02:19.848    172 047 bytes   429 726 bytes   00:02:29.732
********************PLAYLIST: 00004.MPLS********************
Total   Video
Title                                                           Codec   Length  Movie Size      Disc Size       Bitrate Bitrate Main Audio Track                          Secondary Audio Track
-----                                                           ------  ------- --------------  --------------  ------- ------- ------------------                        ---------------------
00004.MPLS                                                      AVC     0:04:54 1 449 222 144   31 146 269 779  39.42   33.00   LPCM 2.0 2304Kbps (48kHz/24-bit)          LPCM 2.0 2304Kbps (48kHz/24-bit)
DISC INFO:
Disc Title:     LINDSEY_STIRLING_LIVE_FROM_LONDON
Disc Size:      31 146 269 779 bytes
Protection:     AACS
BD-Java:        No
BDInfo:         0.5.8
PLAYLIST REPORT:
Name:                   00004.MPLS
Length:                 0:04:54.085 (h:m:s.ms)
Size:                   1 449 222 144 bytes
Total Bitrate:          39.42 Mbps
VIDEO:
Codec                   Bitrate             Description
-----                   -------             -----------
MPEG-4 AVC Video        33000 kbps          1080p / 23.976 fps / 16:9 / High Profile 4.1
AUDIO:
Codec                           Language        Bitrate         Description
-----                           --------        -------         -----------
LPCM Audio                      English         2304 kbps       2.0 / 48 kHz / 2304 kbps / 24-bit
LPCM Audio                      English         2304 kbps       2.0 / 48 kHz / 2304 kbps / 24-bit
FILES:
Name            Time In         Length          Size            Total Bitrate
----            -------         ------          ----            -------------
00008.M2TS      0:00:00.000     0:04:54.085     1 449 222 144   39 423
CHAPTERS:
Number          Time In         Length          Avg Video Rate  Max 1-Sec Rate  Max 1-Sec Time  Max 5-Sec Rate  Max 5-Sec Time  Max 10Sec Rate  Max 10Sec Time  Avg Frame Size  Max Frame Size  Max Frame Time
------          -------         ------          --------------  --------------  --------------  --------------  --------------  --------------  --------------  --------------  --------------  --------------
1               0:00:00.000     0:04:54.085     33 000 kbps     51 712 kbps     00:04:49.956    37 018 kbps     00:04:45.952    34 941 kbps     00:04:40.947    172 047 bytes   578 276 bytes   00:04:50.665
********************PLAYLIST: 00002.MPLS********************
Total   Video
Title                                                           Codec   Length  Movie Size      Disc Size       Bitrate Bitrate Main Audio Track                          Secondary Audio Track
-----                                                           ------  ------- --------------  --------------  ------- ------- ------------------                        ---------------------
00002.MPLS                                                      AVC     0:04:16 1 263 857 664   31 146 269 779  39.42   33.00   LPCM 2.0 2304Kbps (48kHz/24-bit)          LPCM 2.0 2304Kbps (48kHz/24-bit)
DISC INFO:
Disc Title:     LINDSEY_STIRLING_LIVE_FROM_LONDON
Disc Size:      31 146 269 779 bytes
Protection:     AACS
BD-Java:        No
BDInfo:         0.5.8
PLAYLIST REPORT:
Name:                   00002.MPLS
Length:                 0:04:16.464 (h:m:s.ms)
Size:                   1 263 857 664 bytes
Total Bitrate:          39.42 Mbps
VIDEO:
Codec                   Bitrate             Description
-----                   -------             -----------
MPEG-4 AVC Video        33000 kbps          1080p / 23.976 fps / 16:9 / High Profile 4.1
AUDIO:
Codec                           Language        Bitrate         Description
-----                           --------        -------         -----------
LPCM Audio                      English         2304 kbps       2.0 / 48 kHz / 2304 kbps / 24-bit
LPCM Audio                      English         2304 kbps       2.0 / 48 kHz / 2304 kbps / 24-bit
FILES:
Name            Time In         Length          Size            Total Bitrate
----            -------         ------          ----            -------------
00007.M2TS      0:00:00.000     0:04:16.464     1 263 857 664   39 424
CHAPTERS:
Number          Time In         Length          Avg Video Rate  Max 1-Sec Rate  Max 1-Sec Time  Max 5-Sec Rate  Max 5-Sec Time  Max 10Sec Rate  Max 10Sec Time  Avg Frame Size  Max Frame Size  Max Frame Time
------          -------         ------          --------------  --------------  --------------  --------------  --------------  --------------  --------------  --------------  --------------  --------------
1               0:00:00.000     0:04:16.464     33 000 kbps     42 450 kbps     00:04:13.336    34 777 kbps     00:04:09.332    33 976 kbps     00:04:04.327    172 047 bytes   385 141 bytes   00:03:55.151
********************PLAYLIST: 00005.MPLS********************
Total   Video
Title                                                           Codec   Length  Movie Size      Disc Size       Bitrate Bitrate Main Audio Track                          Secondary Audio Track
-----                                                           ------  ------- --------------  --------------  ------- ------- ------------------                        ---------------------
00005.MPLS                                                      AVC     0:03:31 1 041 678 336   31 146 269 779  39.42   33.00   LPCM 2.0 2304Kbps (48kHz/24-bit)          LPCM 2.0 2304Kbps (48kHz/24-bit)
DISC INFO:
Disc Title:     LINDSEY_STIRLING_LIVE_FROM_LONDON
Disc Size:      31 146 269 779 bytes
Protection:     AACS
BD-Java:        No
BDInfo:         0.5.8
PLAYLIST REPORT:
Name:                   00005.MPLS
Length:                 0:03:31.377 (h:m:s.ms)
Size:                   1 041 678 336 bytes
Total Bitrate:          39.42 Mbps
VIDEO:
Codec                   Bitrate             Description
-----                   -------             -----------
MPEG-4 AVC Video        33000 kbps          1080p / 23.976 fps / 16:9 / High Profile 4.1
AUDIO:
Codec                           Language        Bitrate         Description
-----                           --------        -------         -----------
LPCM Audio                      English         2304 kbps       2.0 / 48 kHz / 2304 kbps / 24-bit
LPCM Audio                      English         2304 kbps       2.0 / 48 kHz / 2304 kbps / 24-bit
FILES:
Name            Time In         Length          Size            Total Bitrate
----            -------         ------          ----            -------------
00009.M2TS      0:00:00.000     0:03:31.377     1 041 678 336   39 424
CHAPTERS:
Number          Time In         Length          Avg Video Rate  Max 1-Sec Rate  Max 1-Sec Time  Max 5-Sec Rate  Max 5-Sec Time  Max 10Sec Rate  Max 10Sec Time  Avg Frame Size  Max Frame Size  Max Frame Time
------          -------         ------          --------------  --------------  --------------  --------------  --------------  --------------  --------------  --------------  --------------  --------------
1               0:00:00.000     0:03:30.335     33 000 kbps     41 164 kbps     00:03:28.333    34 988 kbps     00:03:24.329    33 927 kbps     00:03:19.324    172 010 bytes   611 491 bytes   00:03:29.334
2               0:03:30.335     0:00:01.042     33 087 kbps     34 466 kbps     00:03:30.335    0 kbps          00:00:00.000    0 kbps          00:00:00.000    179 687 bytes   355 428 bytes   00:03:31.336

Скриншоты




Показать сообщения:    

Текущее время: 03-Дек 09:50

Часовой пояс: UTC + 3


Вы не можете начинать темы
Вы не можете отвечать на сообщения
Вы не можете редактировать свои сообщения
Вы не можете удалять свои сообщения
Вы не можете голосовать в опросах
Вы не можете прикреплять файлы к сообщениям
Вы не можете скачивать файлы