John Williams Gala (Soundings, Schindler's List, Fiddler on the Roof, Catch Me if You Can, Star Wars, Amistad) Los Angeles Philharmonic, Gustavo Dudamel, Itzhak Perlman [2014, Orchestral, HDTV 720p]


 

[Цитировать]

John Williams Gala
Los Angeles Philharmonic • Gustavo Dudamel

-
Год выпуска: 2014
Лейбл: WDR / arte
Жанр: Orchestral
Продолжительность: 01:39:44
Режиссер: Michael Beyer
Исполнители:
Los Angeles Philharmonic
Gustavo Dudamel - musikalische leitung
Itzhak Perlman - violine
U.S. Army Herald Trumpets
Dan Higgins - alt saxophon
Glenn Paulson - vibrapfon
Michael Valerio - kontrabass
Los Angeles Children's Chorus
Треклист:
John Williams
- Olympic Fanfare and Theme
- "Soundings"
- Three Pieces from "Schindler's List" - Remembrances / Jewish Town Krakow Ghetto 1941 / Theme
- Cadenza and Variations from "Fiddler on the Roof"
- Duel from The Adventures of "Tintin"
- Three Pieces from "Catch Me if You Can" - Closing in / Reflections / Joy Ride
- "Throne Room and Finale" from "Star Wars"
- "Dry Your Tears, Afrika" from "Amistad"
- "Imperial March" from "The Empire Strikes Back"
Доп. информация:
Walt Disney Concert Hall, September 30, 2014
John Williams aus der Walt Disney Concert Hall arte.tv
John Williams from Wikipedia, the free encyclopedia
Gustavo Dudamel Official Site
Gustavo Dudamel from Wikipedia, the free encyclopedia
Itzhak Perlman Official Site
Itzhak Perlman from Wikipedia, the free encyclopedia
Качество видео: HDTV 720p
Контейнер: TS
Видео кодек: H.264
Аудио кодек: AC3
Видео поток: Overall bit rate: 9 630 Kbps, 1280*720 (16:9), at 50.000 fps, AVC (High@L4.0) (CABAC / 4 Ref Frames)
Аудио поток: German, 192 Kbps, 48.0 KHz, 2 channels, MPEG Audio (Version 1) (Layer 2)
Аудио 2: French, 192 Kbps, 48.0 KHz, 2 channels, MPEG Audio (Version 1) (Layer 2)
Аудио 3: Multiple languages, 448 Kbps, 48.0 KHz, 16 bits, 6 channels, AC-3
Аудио 4: 192 Kbps, 48.0 KHz, 2 channels, MPEG Audio (Version 1) (Layer 2)
Источник: Digital Satellite > SkyStar HD2 (TechniSat) > raw data to HDD > Cypheros TS-Doctor > Smart Cutter (cut) > ts

MediaInfo

GeneralID : 8900 (0x22C4)Complete name : C:\rutracker.org_HD\arte HD_John Williams Gala (Gustavo Dudamel) 2014.tsFormat : MPEG-TSFile size : 6.71 GiBDuration : 1h 39mnOverall bit rate mode : VariableOverall bit rate : 9 630 Kbps
VideoID : 5111 (0x13F7)Menu ID : 10302 (0x283E)Format : AVCFormat/Info : Advanced Video CodecFormat profile : High@L4.0Format settings, CABAC : YesFormat settings, ReFrames : 4 framesCodec ID : 27Duration : 1h 39mnBit rate : 8 120 KbpsWidth : 1 280 pixelsHeight : 720 pixelsDisplay aspect ratio : 16:9Frame rate : 50.000 fpsColor space : YUVChroma subsampling : 4:2:0Bit depth : 8 bitsScan type : ProgressiveBits/(Pixel*Frame) : 0.176Stream size : 5.66 GiB (84%)
Audio #1ID : 5112 (0x13F8)Menu ID : 10302 (0x283E)Format : MPEG AudioFormat version : Version 1Format profile : Layer 2Codec ID : 3Duration : 1h 39mnBit rate mode : ConstantBit rate : 192 KbpsChannel(s) : 2 channelsSampling rate : 48.0 KHzCompression mode : LossyDelay relative to video : -21msStream size : 137 MiB (2%)Language : German
Audio #2ID : 5113 (0x13F9)Menu ID : 10302 (0x283E)Format : MPEG AudioFormat version : Version 1Format profile : Layer 2Codec ID : 3Duration : 1h 39mnBit rate mode : ConstantBit rate : 192 KbpsChannel(s) : 2 channelsSampling rate : 48.0 KHzCompression mode : LossyDelay relative to video : -21msStream size : 137 MiB (2%)Language : French
Audio #3ID : 5116 (0x13FC)Menu ID : 10302 (0x283E)Format : AC-3Format/Info : Audio Coding 3Mode extension : CM (complete main)Format settings, Endianness : BigCodec ID : 6Duration : 1h 39mnBit rate mode : ConstantBit rate : 448 KbpsChannel(s) : 6 channelsChannel positions : Front: L C R, Side: L R, LFESampling rate : 48.0 KHzBit depth : 16 bitsCompression mode : LossyDelay relative to video : -9msStream size : 320 MiB (5%)Language : Multiple languages
Audio #4ID : 5117 (0x13FD)Menu ID : 10302 (0x283E)Format : MPEG AudioFormat version : Version 1Format profile : Layer 2Codec ID : 3Duration : 1h 39mnBit rate mode : ConstantBit rate : 192 KbpsChannel(s) : 2 channelsSampling rate : 48.0 KHzCompression mode : LossyDelay relative to video : -11msStream size : 137 MiB (2%)
... info ...">

Скриншоты ... info ...


The program begins with the U.S. Army Herald Trumpets joining Dudamel and the orchestra in the Olympic Fanfare & Theme, which Williams composed for the 1984 Olympic Games and conducted at its premiere during the opening ceremonies in Los Angeles.
Next, Perlman joins the orchestra to perform three pieces from 1993’s “Schindler’s List”: “Remembrances,” “Jewish Town – Krakow Ghetto 1941” and “Theme.” (Perlman explains that wherever he happens to be in the world, he is asked to play the music from that film.) He also performs Williams’ original Cadenza and Variations from the 1971 film adaptation of “Fiddler on the Roof,” for which the composer won his first Academy Award.
The spirited piece is followed by excerpts from “Soundings” accompanied by video. At the time of the work’s premiere, Williams said that he thought of it “…as an experimental piece for Walt Disney Concert Hall in which a collection of colorful sonorities could be sampled in the Los Angeles Philharmonic’s new environment.” He elaborates on his inspiration for the piece in his talk with Dudamel.
The orchestra is then joined by soloists Higgins (alto saxophone), Paulson (vibraphone) and Valerio (string bass) to perform Williams’ delightful jazz-infused suite “Escapades” from “Catch Me If You Can.”
The program continues with the orchestra performing “Throne Room and Finale” from “Star Wars.” The animated artwork featured during the performance is from the Lucas Museum of Narrative Art’s “Star Wars”Archive, including the simple line drawings and more detailed graphic representations of what would ultimately become the live action movie. At the end of the piece, Dudamel acknowledges Williams, who stands from his seat to a rousing ovation.
For the first encore, the Los Angeles Children’s Chorus (LACC) sings “Dry Your Tears, Afrika” from the 1997 film “Amistad.” They are accompanied by additional singers from the Angeles Chorale.
The ominous opening measures of Williams’ Theme from “Jaws” cause the children chorus members to flee the stage in mock-terror (but of course with bright smiles on their faces). Dudamel then escorts the evening’s honoree to the stage, where Williams leads the orchestra in a performance of his famous “Imperial March” from “The Empire Strikes Back.” An onstage appearance of a phalanx of official Imperial Stormtroopers, heralds the arrival of one of history’s most infamous film villains, Darth Vader himself, carrying a light saber. Near the conclusion of the iconic theme, confetti in the shapes of “Star Wars”characters C3PO and R2D2 cascade down from the ceiling.
~ thirteen.org



Показать сообщения:    

Текущее время: 03-Дек 22:47

Часовой пояс: UTC + 3


Вы не можете начинать темы
Вы не можете отвечать на сообщения
Вы не можете редактировать свои сообщения
Вы не можете удалять свои сообщения
Вы не можете голосовать в опросах
Вы не можете прикреплять файлы к сообщениям
Вы не можете скачивать файлы