Mozartwoche 2015 "Bartabas in Salzburg" Mozart - Priestermarsch; Maurerische Trauermusik; Davide Penitente (Les musiciens du Louvre Grenoble, Marc Minkowski, Christiane Karg, Marianne Crebassa) [2015, Classical / Orchestral, HDTV 720p]


 

[Цитировать]

Mozartwoche 2015
Bartabas in Salzburg

Les musiciens du Louvre Grenoble • Salzburger Bachchor • Marc Minkowski

-
Год выпуска: 2015
Лейбл: arte
Жанр: Classical / Orchestral / Choral
Продолжительность: 01:05:42
Режиссер: Bartabas
Исполнители:
Bartabas - regie und choreographie
Académie Equestre de Versailles - pferde und reiter
Marc Minkowski - dirigent
Les musiciens du Louvre Grenoble
Salzburger Bachchor
Christiane Karg - sopran
Marianne Crebassa - mezzosopran
Stanislas de Barbeyrac - tenor
Треклист:
Wolfgang Amadeus Mozart
- Priestermarsch KV 620/09
- Maurerische Trauermusik KV 477
- Davide Penitente KV 469
- Andante aus der Symphonie C-Dur KV 96
Доп. информация:
Mozartwoche 2015, Felsenreitschule Salzbur
Bartabas in Salzburg arte.tv
Davide Penitente KV 469 from Wikipedia, the free encyclopedia
Bartabas from Wikipedia, the free encyclopedia
Marc Minkowski from Wikipedia, the free encyclopedia
Качество видео: HDTV 720p
Контейнер: TS
Видео кодек: H.264
Аудио кодек: AC3
Видео поток: Overall bit rate: 8 529 Kbps, 1280*720 (16:9), at 50.000 fps, AVC (High@L4.0) (CABAC / 4 Ref Frames)
Аудио поток: German, 192 Kbps, 48.0 KHz, 2 channels, MPEG Audio (Version 1) (Layer 2)
Аудио 2: French, 192 Kbps, 48.0 KHz, 2 channels, MPEG Audio (Version 1) (Layer 2)
Аудио 3: Multiple languages, 448 Kbps, 48.0 KHz, 16 bits, 2 channels, AC-3
Аудио 4: 192 Kbps, 48.0 KHz, 2 channels, MPEG Audio (Version 1) (Layer 2)
Источник: Digital Satellite > SkyStar HD2 (TechniSat) > raw data to HDD > Cypheros TS-Doctor > Smart Cutter (cut) > ts

MediaInfo

GeneralID : 8900 (0x22C4)Complete name : C:\rutracker.org_HD\arte HD_Bartabas in Salzburg (Marc Minkowski) - Mozartwoche 2015.tsFormat : MPEG-TSFile size : 3.91 GiBDuration : 1h 5mnOverall bit rate mode : VariableOverall bit rate : 8 529 Kbps
VideoID : 5111 (0x13F7)Menu ID : 10302 (0x283E)Format : AVCFormat/Info : Advanced Video CodecFormat profile : High@L4.0Format settings, CABAC : YesFormat settings, ReFrames : 4 framesFormat settings, GOP : M=6, N=32Codec ID : 27Duration : 1h 5mnBit rate : 7 073 KbpsWidth : 1 280 pixelsHeight : 720 pixelsDisplay aspect ratio : 16:9Frame rate : 50.000 fpsColor space : YUVChroma subsampling : 4:2:0Bit depth : 8 bitsScan type : ProgressiveBits/(Pixel*Frame) : 0.153Stream size : 3.25 GiB (83%)
Audio #1ID : 5112 (0x13F8)Menu ID : 10302 (0x283E)Format : MPEG AudioFormat version : Version 1Format profile : Layer 2Codec ID : 3Duration : 1h 5mnBit rate mode : ConstantBit rate : 192 KbpsChannel(s) : 2 channelsSampling rate : 48.0 KHzCompression mode : LossyDelay relative to video : -5msStream size : 90.2 MiB (2%)Language : German
Audio #2ID : 5113 (0x13F9)Menu ID : 10302 (0x283E)Format : MPEG AudioFormat version : Version 1Format profile : Layer 2Codec ID : 3Duration : 1h 5mnBit rate mode : ConstantBit rate : 192 KbpsChannel(s) : 2 channelsSampling rate : 48.0 KHzCompression mode : LossyDelay relative to video : -5msStream size : 90.2 MiB (2%)Language : French
Audio #3ID : 5116 (0x13FC)Menu ID : 10302 (0x283E)Format : AC-3Format/Info : Audio Coding 3Mode extension : CM (complete main)Format settings, Endianness : BigCodec ID : 6Duration : 1h 5mnBit rate mode : ConstantBit rate : 448 KbpsChannel(s) : 2 channelsChannel positions : Front: L RSampling rate : 48.0 KHzBit depth : 16 bitsCompression mode : LossyDelay relative to video : -17msStream size : 211 MiB (5%)Language : Multiple languages
Audio #4ID : 5117 (0x13FD)Menu ID : 10302 (0x283E)Format : MPEG AudioFormat version : Version 1Format profile : Layer 2Codec ID : 3Duration : 1h 5mnBit rate mode : ConstantBit rate : 192 KbpsChannel(s) : 2 channelsSampling rate : 48.0 KHzCompression mode : LossyDelay relative to video : -19msStream size : 90.2 MiB (2%)



Показать сообщения:    

Текущее время: 04-Дек 09:04

Часовой пояс: UTC + 3


Вы не можете начинать темы
Вы не можете отвечать на сообщения
Вы не можете редактировать свои сообщения
Вы не можете удалять свои сообщения
Вы не можете голосовать в опросах
Вы не можете прикреплять файлы к сообщениям
Вы не можете скачивать файлы