Sommernachtsgala Grafenegg 2013 (Wagner, Rossini, Dvorak, Mozart, Keiko Abe, Avner Dorman, Bernstein ...) Tonkunstler-Orchester, Niederosterreich, Andres Orozco-Estrada, Karita Mattila, Luca Pisaroni [2013, Orchestral / Open-Air-Konzert, HDTV 720p]


 

[Цитировать]

Sommernachtsgala Grafenegg 2013
Tonkünstler-Orchester • Niederösterreich • Andrés Orozco-Estrada
- Год выпуска: 2013
Лейбл: ORF
Жанр: Classical / Orchestral / Open-Air-Konzert
Продолжительность: 01:37:47
Язык: немецкий (Barbara Rett - moderation)
Режиссер: Heidelinde Haschek (bildregie)
Исполнители:
Tonkünstler-Orchester
Niederösterreich
Andrés Orozco-Estrada - musikalische leitung
Solisten:
Karita Mattila - sopran
Luca Pisaroni - bass-baritone
Martin Grubinger - vibraphone, percussion
Треклист:
Richard Wagner - Ouvertüre zu "Das Liebesverbot"
Giuseppe Verdi - "Pace, Pace mio Dio" aus "Macht des Schicksals"
Gioachino Rossini:
- Ouvertüre zu "Il Signol Bruschino"
- "La Calunnia" aus "Il Barbiere di Siviglia"
Antonin Dvorak:
- Polonaise aus "Rusalka"
- "Mond, der du am tiefen Himmel stehst" aus "Rusalka"
Wolfgang Amadeus Mozart:
- Ouvertüre zu "Don Giovanni"
- "Madamina, in catalogo è questo" aus "Don Giovanni"
Keiko Abe - "Prism Rhapsody"
Avner Dorman - "Frozen in time", 3.Satz (The Americas)
Frederick Loewe - "I could have danced all night" aus "My fair ledi"
Cole Porter - "Night and Day"
Leonard Bernstein - "Tonight" aus "West Side Story"
Edward Elgar - Marsh aus "Pomp and Circumstance"
Доп. информация:
Aus dem "Wolkenturm" in Grafenegg, 21. Juni 2013
Andrés Orozco-Estrada Official Site
Andrés Orozco-Estrada from Wikipedia, the free encyclopedia
Karita Mattila from Wikipedia, the free encyclopedia
Luca Pisaroni Official Site
Luca Pisaroni from Wikipedia, the free encyclopedia
Качество видео: HDTV 720p
Контейнер: TS
Видео кодек: H.264
Аудио кодек: AC3
Видео поток: Overall bit rate: 13.6 Mbps, 1280*720 (16:9), at 50.000 fps, AVC (High@L4.0) (CABAC / 6 Ref Frames)
Аудио поток: German, 448 Kbps, 48.0 KHz, 16 bits, 2 channels, AC-3
Источник: Digital Satellite > SkyStar HD2 (TechniSat) > raw data to HDD > Cypheros TS-Doctor > Smart Cutter (cut) > ts

MediaInfo

GeneralID : 6 (0x6)Complete name : C:\rutracker.org_HD\3sat HD_Sommernachtsgala Grafenegg 2013.tsFormat : MPEG-TSFile size : 9.29 GiBDuration : 1h 37mnOverall bit rate mode : VariableOverall bit rate : 13.6 Mbps
VideoID : 6510 (0x196E)Menu ID : 1 (0x1)Format : AVCFormat/Info : Advanced Video CodecFormat profile : High@L4.0Format settings, CABAC : YesFormat settings, ReFrames : 6 framesCodec ID : 27Duration : 1h 37mnBit rate : 12.5 MbpsWidth : 1 280 pixelsHeight : 720 pixelsDisplay aspect ratio : 16:9Frame rate : 50.000 fpsColor space : YUVChroma subsampling : 4:2:0Bit depth : 8 bitsScan type : ProgressiveBits/(Pixel*Frame) : 0.271Stream size : 8.52 GiB (92%)Language : EnglishColor primaries : BT.709Transfer characteristics : BT.709Matrix coefficients : BT.709
AudioID : 6522 (0x197A)Menu ID : 1 (0x1)Format : AC-3Format/Info : Audio Coding 3Mode extension : CM (complete main)Format settings, Endianness : BigCodec ID : 129Duration : 1h 37mnBit rate mode : ConstantBit rate : 448 KbpsChannel(s) : 2 channelsChannel positions : Front: L RSampling rate : 48.0 KHzBit depth : 16 bitsCompression mode : LossyDelay relative to video : -16msStream size : 313 MiB (3%)Language : German
... info ...">

Скриншоты ... info ...


Sommernachtsgala Grafenegg 2013
Aus dem "Wolkenturm" in Grafenegg, 21. Juni 2013
Mit Martin Grubinger, Karita Mattila und Luca Pisaroni
Der majestätische Wolkenturm in Grafenegg ist alljährlich die Bühne für eine Vielzahl von Konzerten, die das Musikleben in Österreich und weit darüber hinaus bereichern. Die Abende am Wolkenturm werden mit der traditionellen "Sommernachtsgala" eröffnet, zu der sich einige der ganz großen Stars der internationalen Musikszene in Grafenegg einfinden. Den Auftakt geben 2013 die gefeierte Sopranistin Karita Mattila, der Bassbariton Luca Pisaroni und der österreichische Schlagwerkvirtuose Martin Grubinger gemeinsam mit demTonkünstler-Orchester Niederösterreich unter der musikalischen Leitung von Andrés Orozco-Estrada.
3sat zeigt die "Sommernachtsgala in Grafenegg", die binnen weniger Jahre zum Inbegriff der festlichen Lebensfreude geworden ist, im Rahmen des Festspielsommers.
~ 3sat.de



Показать сообщения:    

Текущее время: 10-Дек 09:53

Часовой пояс: UTC + 3


Вы не можете начинать темы
Вы не можете отвечать на сообщения
Вы не можете редактировать свои сообщения
Вы не можете удалять свои сообщения
Вы не можете голосовать в опросах
Вы не можете прикреплять файлы к сообщениям
Вы не можете скачивать файлы